<?xml version="1.0" standalone="no"?>
<!DOCTYPE svg PUBLIC "-//W3C//DTD SVG 1.1//EN" "http://www.w3.org/Graphics/SVG/1.1/DTD/svg11.dtd" >
<svg>
<metadata>
Created by FontForge 20090622 at Mon Dec 19 08:56:11 2016
 By deploy user
&#194;&#169; 1992 Unity Progress. Portions &#194;&#169; 2004 The Monotype Corporation. Portions &#194;&#169; 2006 Microsoft Corporation. All Rights Reserved.
</metadata>
<defs>
<font id="AngsanaNew" horiz-adv-x="1352" >
  <font-face 
    font-family="Angsana New"
    font-weight="400"
    font-stretch="normal"
    units-per-em="4096"
    panose-1="2 2 6 3 5 4 5 2 3 4"
    ascent="3276"
    descent="-820"
    x-height="1209"
    cap-height="1790"
    bbox="-2007 -1679 3240 3854"
    underline-thickness="102"
    underline-position="-154"
    unicode-range="U+0020-U+25CC"
  />
    <missing-glyph />
    <glyph glyph-name="000a" horiz-adv-x="3072" 
d="M512 0v2560h2048v-2560h-2048zM576 64h1920v2432h-1920v-2432z" />
    <glyph glyph-name="glyph1" horiz-adv-x="0" 
 />
    <glyph glyph-name="glyph2" horiz-adv-x="676" 
 />
    <glyph glyph-name="space" unicode=" " horiz-adv-x="676" 
 />
    <glyph glyph-name="space" unicode="&#xa0;" horiz-adv-x="676" 
 />
    <glyph glyph-name="exclam" unicode="!" horiz-adv-x="900" 
d="M475 474h-50l-116 1069q-8 74 -8 104q0 184 150 184q148 0 148 -184q0 -30 -8 -104zM595 110q0 -147 -146 -147q-147 0 -147 147q0 69 47 107.5t100 38.5q41 0 73.5 -20t52.5 -52.5t20 -73.5z" />
    <glyph glyph-name="quotedbl" unicode="&#x22;" horiz-adv-x="1104" 
d="M821 1060h-57l-72 391q-29 157 -29 219q0 161 129 161q135 0 135 -143q0 -47 -35 -239zM334 1060h-57l-72 391q-29 157 -29 219q0 161 129 161q135 0 135 -143q0 -47 -35 -239z" />
    <glyph glyph-name="numbersign" unicode="#" 
d="M1303 564h-359l-123 -601h-107l120 601h-447l-126 -601h-109l123 601h-226v108h247l91 453h-338v105h363l120 601h110l-121 -601h445l128 601h110l-126 -601h225v-105h-244l-93 -453h337v-108zM949 1125h-450l-92 -453h447z" />
    <glyph glyph-name="dollar" unicode="$" 
d="M694 -37v-169h-84v169q-237 10 -467 104v374h58q28 -356 409 -392v771q-314 194 -390 314t-76 255q0 189 137 298.5t329 131.5v121h84v-121q230 -13 436 -116v-395h-52q-31 387 -384 423v-671q356 -238 439 -365t83 -251q0 -217 -157.5 -340t-364.5 -141zM610 1115v614
q-260 -31 -260 -255q0 -187 260 -359zM694 763v-714q312 53 312 329q0 97 -64 178t-248 207z" />
    <glyph glyph-name="percent" unicode="%" horiz-adv-x="2252" 
d="M1837 1831l-1304 -1905h-117l1304 1905h117zM855 1344q0 -187 -93 -334t-284 -147q-172 0 -277.5 137.5t-105.5 343.5q0 245 121 366t264 121q171 0 273 -141.5t102 -345.5zM647 1337q0 420 -170 420q-172 0 -172 -412q0 -416 168 -416q174 0 174 408zM2159 408
q0 -209 -101 -345t-277 -137q-173 0 -277.5 140t-104.5 341q0 240 117.5 360.5t260.5 120.5q181 1 281.5 -143.5t100.5 -336.5zM1951 405q0 414 -173 413q-169 0 -169 -421q0 -397 169 -397q173 1 173 405z" />
    <glyph glyph-name="ampersand" unicode="&#x26;" horiz-adv-x="2103" 
d="M2021 322q-95 -363 -409 -363q-221 0 -464 257q-290 -257 -575 -257q-188 0 -331 95.5t-143 297.5q0 355 546 649q-106 236 -106 393q0 206 137.5 321.5t322.5 115.5q153 0 254 -90.5t101 -231.5q0 -263 -434 -477q168 -298 350 -546q232 277 232 467q0 135 -123 151v48
h555v-48q-116 -9 -175.5 -60t-165.5 -243q-116 -210 -261 -392q211 -247 396 -247q191 0 244 196zM1201 1515q0 93 -57 156.5t-147 63.5q-98 0 -165.5 -69.5t-67.5 -167.5q0 -118 111 -380q326 155 326 397zM1080 293q-255 347 -390 619q-318 -183 -318 -438
q0 -153 95.5 -254t241.5 -101q156 0 371 174z" />
    <glyph glyph-name="quotesingle" unicode="'" horiz-adv-x="487" 
d="M267 1060h-58l-72 391q-30 163 -30 219q0 161 128 161q137 0 137 -141q0 -55 -34 -241z" />
    <glyph glyph-name="parenleft" unicode="(" horiz-adv-x="900" 
d="M840 -409q-337 166 -533 488.5t-196 737.5q0 405 197.5 743t531.5 486v-55q-474 -263 -474 -1140q0 -498 115.5 -771t358.5 -440v-49z" />
    <glyph glyph-name="parenright" unicode=")" horiz-adv-x="900" 
d="M61 -409v49q474 265 474 1140q0 477 -113 757.5t-361 453.5v55q336 -162 532 -487t196 -739q0 -405 -197 -743t-531 -486z" />
    <glyph glyph-name="asterisk" unicode="*" 
d="M731 1329q70 -36 168 -54q259 -47 259 -167q0 -98 -99 -98q-90 0 -218 152q-55 65 -135 121q3 -72 31 -164q47 -154 47 -212q0 -126 -99 -126q-59 0 -87.5 37.5t-28.5 89.5q0 57 26 139l43 136q4 13 14 100q-80 -53 -136 -115q-142 -158 -216 -158q-109 0 -109 98
q0 62 57.5 100.5t213.5 70.5q82 17 160 50q-69 35 -171 56q-179 37 -219.5 78.5t-40.5 88.5q0 95 99 95q94 0 214 -139q72 -84 148 -130q-10 63 -37 181q-45 141 -45 178q0 140 112 140q102 0 102 -137q0 -54 -35 -173q-38 -129 -43 -189q75 47 131 112q134 155 222 155
q103 0 103 -101q0 -105 -262 -163q-97 -21 -169 -52z" />
    <glyph glyph-name="plus" unicode="+" horiz-adv-x="1525" 
d="M1472 845h-660v-659h-106v659h-657v108h657v656h106v-656h660v-108z" />
    <glyph glyph-name="comma" unicode="," horiz-adv-x="676" 
d="M145 -450v58q285 94 285 339q0 54 -30 54q-13 0 -63 -26q-23 -12 -51 -12q-141 0 -141 144q0 67 50.5 112t119.5 45q104 0 164 -86t60 -191q0 -308 -394 -437z" />
    <glyph glyph-name="hyphen" unicode="-" horiz-adv-x="900" 
d="M792 719h-682v199h682v-199z" />
    <glyph glyph-name="period" unicode="." horiz-adv-x="676" 
d="M484 110q0 -147 -146 -147q-147 0 -147 147q0 146 147 146q146 0 146 -146z" />
    <glyph glyph-name="slash" unicode="/" horiz-adv-x="751" 
d="M758 1877l-648 -1914h-106l648 1914h106z" />
    <glyph glyph-name="zero" unicode="0" 
d="M1255 912q0 -497 -189.5 -720.5t-397.5 -223.5q-245 0 -407.5 271.5t-162.5 644.5q0 466 185 704.5t398 238.5q161 0 297 -129t206.5 -326t70.5 -460zM997 970q0 345 -80.5 557.5t-236.5 212.5q-324 0 -324 -889q0 -376 85 -588t231 -212q325 0 325 919z" />
    <glyph glyph-name="one" unicode="1" 
d="M1022 0h-674v49q126 1 160.5 19t52 45t17.5 202v967q0 205 -17.5 268.5t-87.5 63.5q-49 0 -136 -41l-20 41l435 213h44v-1512q0 -134 8 -173t47 -65t171 -28v-49z" />
    <glyph glyph-name="two" unicode="2" 
d="M1240 345l-126 -345h-1056v49q493 446 669.5 714t176.5 473q0 145 -92 267t-262 122q-289 0 -392 -304h-48q68 506 510 506q211 0 360.5 -136t149.5 -334q0 -152 -95 -338t-364.5 -475t-331.5 -345h468q138 0 230.5 21.5t153.5 124.5h49z" />
    <glyph glyph-name="three" unicode="3" 
d="M411 888v40q200 26 304.5 144t104.5 272q0 115 -74.5 209t-222.5 94q-205 0 -342 -219l-44 21q160 378 485 378q195 0 306 -114t111 -249q0 -195 -246 -404q334 -131 334 -467q0 -263 -187.5 -444t-518.5 -181q-311 0 -311 142q0 96 105 96q57 0 180 -62q123 -61 203 -61
q154 0 244 112.5t90 238.5q0 112 -53.5 220t-170 171t-255.5 63h-42z" />
    <glyph glyph-name="four" unicode="4" 
d="M1258 473h-240v-473h-218v473h-758v169l831 1185h145v-1167h240v-187zM800 660v888l-628 -888h628z" />
    <glyph glyph-name="five" unicode="5" 
d="M1174 1790l-103 -224h-539l-118 -241q329 -48 529.5 -235t200.5 -447q0 -278 -212 -476.5t-495 -198.5q-308 0 -308 176q0 94 107 94q55 0 148 -65q99 -69 201 -69q159 0 273.5 118.5t114.5 283.5q0 258 -210 419t-574 169l343 696h642z" />
    <glyph glyph-name="six" unicode="6" 
d="M1212 1827v-49q-611 -60 -799 -779q190 131 382 131q215 0 333.5 -165t118.5 -363q0 -216 -147 -425t-422 -209q-156 0 -282.5 96.5t-203 264.5t-76.5 373q0 461 322.5 793t696.5 332h77zM391 903q-24 -178 -24 -288q0 -163 43.5 -288.5t124 -205t182.5 -79.5
q138 0 216.5 124t78.5 293q0 234 -90.5 395t-253.5 161q-97 0 -277 -112z" />
    <glyph glyph-name="seven" unicode="7" 
d="M1232 1740l-597 -1777h-148l535 1612h-493q-136 0 -227.5 -43t-162.5 -180l-39 14l172 424h960v-50z" />
    <glyph glyph-name="eight" unicode="8" 
d="M519 902q-210 171 -273 280t-63 219q0 204 151.5 315t341.5 111q194 0 337 -107.5t143 -278.5q0 -219 -368 -450q258 -199 333 -318.5t75 -247.5q0 -220 -160.5 -338.5t-360.5 -118.5q-257 0 -384 144t-127 296q0 237 355 494zM726 1043q159 141 201 228.5t42 183.5
q0 295 -291 295q-127 0 -215 -74t-88 -186q0 -156 135 -268zM581 851q-215 -181 -215 -437q0 -165 91 -269.5t239 -104.5q121 0 217.5 70.5t96.5 204.5q0 88 -61 190t-368 346z" />
    <glyph glyph-name="nine" unicode="9" 
d="M143 -37v49q295 5 509 233.5t288 539.5q-207 -133 -375 -133q-204 0 -331 154t-127 379q0 255 157.5 448.5t400.5 193.5q144 0 268.5 -82t213.5 -255.5t89 -401.5q0 -473 -324 -799t-694 -326h-75zM985 1158q0 167 -40.5 292t-122 208t-186.5 83q-142 0 -218 -121.5
t-76 -298.5q0 -247 92 -398t237 -151q157 0 290 111q24 172 24 275z" />
    <glyph glyph-name="colon" unicode=":" horiz-adv-x="751" 
d="M528 1100q0 -42 -20 -74.5t-52.5 -52.5t-74.5 -20q-61 0 -103.5 43t-42.5 104q0 41 20 74t52.5 52.5t73.5 19.5q53 0 100 -38.5t47 -107.5zM527 110q0 -61 -43.5 -104t-104.5 -43q-42 0 -74.5 20t-52.5 52.5t-20 74.5q0 41 20 74t53 53t74 20q53 0 100.5 -39t47.5 -108z
" />
    <glyph glyph-name="semicolon" unicode=";" horiz-adv-x="751" 
d="M519 1102q0 -68 -47.5 -107t-99.5 -39q-41 0 -74 20t-52.5 52.5t-19.5 73.5q0 60 43 102.5t103 42.5t103.5 -42.5t43.5 -102.5zM187 -450v58q286 94 286 339q0 54 -31 54q-13 0 -63 -26q-23 -12 -50 -12q-142 0 -142 144q0 67 50.5 112t120.5 45q104 0 163.5 -85.5
t59.5 -191.5q0 -308 -394 -437z" />
    <glyph glyph-name="less" unicode="&#x3c;" horiz-adv-x="1525" 
d="M1469 247l-1420 620v65l1420 615v-115l-1222 -530l1222 -536v-119z" />
    <glyph glyph-name="equal" unicode="=" horiz-adv-x="1525" 
d="M1473 1057h-1424v109h1424v-109zM1473 627h-1424v108h1424v-108z" />
    <glyph glyph-name="greater" unicode="&#x3e;" horiz-adv-x="1525" 
d="M1469 862l-1420 -615v113l1224 531l-1224 536v120l1420 -620v-65z" />
    <glyph glyph-name="question" unicode="?" horiz-adv-x="1200" 
d="M599 422h-54q15 273 176 579q126 239 126 390q0 159 -85 262.5t-222 103.5q-95 0 -171 -47t-76 -125q0 -29 35 -106q44 -99 44 -122q0 -112 -104 -112q-67 0 -107 63t-40 144q0 179 147 279t329 100q255 0 375 -131t120 -285q0 -203 -206 -437q-169 -192 -222.5 -287
t-64.5 -269zM727 110q0 -147 -146 -147q-147 0 -147 147q0 61 43 103.5t104 42.5q41 0 73.5 -20t52.5 -52.5t20 -73.5z" />
    <glyph glyph-name="at" unicode="@" horiz-adv-x="2490" 
d="M2424 227q-121 -367 -434.5 -588.5t-710.5 -221.5q-497 0 -824 331.5t-327 837.5q0 356 167 656.5t460 467.5t622 167q473 0 707.5 -272t234.5 -632q0 -336 -192 -634t-536 -298q-202 0 -202 181q0 74 23 194q-311 -376 -520 -376q-104 0 -171.5 90t-67.5 217
q0 315 254 620.5t474 305.5q185 0 227 -183l43 146l208 29l-155 -527q-123 -418 -123 -502q0 -100 99 -100q201 0 380.5 261.5t179.5 599.5q0 388 -252 600.5t-603 212.5q-358 0 -625.5 -201.5t-387.5 -494t-120 -562.5q0 -473 291.5 -764t742.5 -291q402 0 666 212t395 518
h77zM1560 1020q0 190 -165 190q-102 0 -220 -125t-215.5 -346t-97.5 -352q0 -77 44 -132.5t108 -55.5q129 0 277 162.5t208.5 353.5t60.5 305z" />
    <glyph glyph-name="A" unicode="A" horiz-adv-x="1952" 
d="M1922 0h-706v49q182 9 182 109q0 58 -53 184l-108 257h-693l-122 -282q-44 -102 -44 -156q0 -97 207 -112v-49h-564v49q102 18 151.5 55.5t142.5 253.5l630 1473h46l623 -1489q65 -156 125 -220.5t183 -72.5v-49zM1200 697l-304 723l-311 -723h615z" />
    <glyph glyph-name="B" unicode="B" horiz-adv-x="1803" 
d="M45 0v49h67q84 0 138 45.5t54 222.5v1156q0 177 -51.5 222.5t-140.5 45.5h-67v49h773q754 0 754 -478q0 -294 -323 -399q406 -85 406 -423q0 -160 -105.5 -283.5t-254.5 -165t-405 -41.5h-845zM557 1672v-687q98 -19 250 -19q489 0 489 357q0 179 -141 279t-360 100
q-132 0 -238 -30zM557 863v-734q153 -35 302 -35q219 0 354.5 98.5t135.5 274.5q0 195 -148 301.5t-410 106.5q-170 0 -234 -12z" />
    <glyph glyph-name="C" unicode="C" horiz-adv-x="1803" 
d="M1709 420q-259 -461 -740 -461q-400 0 -635.5 264t-235.5 644q0 412 261.5 688t649.5 276q195 0 382 -95q57 -29 80 -29q82 0 110 124h47l41 -609h-41q-154 514 -598 514q-327 0 -479 -246t-152 -625q0 -396 187.5 -593t481.5 -197q198 0 329.5 88.5t271.5 282.5z" />
    <glyph glyph-name="D" unicode="D" horiz-adv-x="1952" 
d="M46 0v49h68q113 0 151.5 58t38.5 210v1156q0 179 -50.5 223.5t-139.5 44.5h-68v49h729q305 0 526.5 -59.5t384.5 -279.5t163 -547q0 -253 -110.5 -462t-330 -325.5t-562.5 -116.5h-800zM557 1651v-1522q168 -37 281 -37q354 0 532 240t178 559q0 360 -196 579.5
t-524 219.5q-119 0 -271 -39z" />
    <glyph glyph-name="E" unicode="E" horiz-adv-x="1651" 
d="M1589 449l-154 -449h-1380v49h64q94 0 143.5 48t49.5 218v1163q0 182 -48 222.5t-145 40.5h-64v49h1380l20 -392h-52q-35 182 -100.5 238t-246.5 56h-491v-707h393q138 0 205.5 45t76.5 215h48v-623h-48q-17 181 -90.5 223.5t-191.5 42.5h-393v-590q0 -127 26 -163.5
t122 -36.5h303q188 0 294.5 60t226.5 291h52z" />
    <glyph glyph-name="F" unicode="F" horiz-adv-x="1504" 
d="M1393 1397h-47q-36 131 -103 213t-295 82h-395v-703h326q126 0 172 58t62 187h49v-606h-49q-2 138 -57.5 194.5t-176.5 56.5h-326v-562q0 -148 19 -184t70.5 -60t104.5 -24h65v-49h-768v49h63q122 0 157.5 58.5t35.5 209.5v1156q0 170 -45.5 219t-147.5 49h-63v49h1331z
" />
    <glyph glyph-name="G" unicode="G" horiz-adv-x="1952" 
d="M1914 927h-33q-100 0 -134 -57t-34 -205v-548q-293 -158 -628 -158q-468 0 -729 267.5t-261 640.5q0 260 140 500t342 352t466 112q174 0 404 -86q75 -28 99 -28q58 0 64 114h49l46 -565h-46q-150 472 -591 472q-333 0 -501 -242t-168 -572q0 -380 196.5 -627.5
t490.5 -247.5q196 0 370 99v517q0 156 -47 209t-188 53v50h693v-50z" />
    <glyph glyph-name="H" unicode="H" horiz-adv-x="1952" 
d="M1897 0h-766v49h64q121 0 156.5 59.5t35.5 208.5v545h-831v-545q0 -150 20 -186.5t71 -59t101 -22.5h65v-49h-767v49h64q123 0 157.5 58t34.5 210v1155q0 150 -20 187.5t-71 59.5t-101 22h-64v49h767v-49h-65q-94 0 -143 -48t-49 -221v-512h831v512q0 151 -20 187.5
t-71 59t-101 22.5h-64v49h766v-49h-63q-95 0 -144 -48t-49 -221v-1155q0 -169 44 -218.5t149 -49.5h63v-49z" />
    <glyph glyph-name="I" unicode="I" horiz-adv-x="900" 
d="M834 0h-767v49h64q123 0 157.5 58t34.5 210v1156q0 169 -44 218.5t-148 49.5h-64v49h767v-49h-64q-79 0 -136 -42t-57 -226v-1156q0 -158 23 -192.5t71.5 -55t98.5 -20.5h64v-49z" />
    <glyph glyph-name="J" unicode="J" horiz-adv-x="1052" 
d="M1036 1741h-64q-122 0 -157 -59t-35 -209v-875q0 -302 -126.5 -470.5t-331.5 -168.5q-108 0 -187.5 55.5t-79.5 146.5q0 139 135 139q85 0 161 -176q30 -71 78 -71q98 0 98 198v1222q0 167 -42.5 217.5t-150.5 50.5h-65v49h767v-49z" />
    <glyph glyph-name="K" unicode="K" horiz-adv-x="1952" 
d="M1975 0h-852v49q144 0 144 83q0 56 -95 150l-618 612v-577q0 -169 45.5 -218.5t147.5 -49.5h61v-49h-763v49h63q122 0 157.5 59t35.5 209v1156q0 146 -18 183.5t-69.5 61t-105.5 23.5h-63v49h763v-49h-61q-94 0 -143.5 -48.5t-49.5 -219.5v-548q452 418 571.5 544
t119.5 196q0 76 -122 76h-41v49h658v-49q-84 -2 -171.5 -44.5t-145.5 -94.5t-342 -337l-273 -272l660 -656q274 -272 507 -288v-49z" />
    <glyph glyph-name="L" unicode="L" horiz-adv-x="1651" 
d="M1593 486l-153 -486h-1386v49h67q113 0 152 57.5t39 211.5v1155q0 179 -50.5 223.5t-140.5 44.5h-67v49h811v-49q-112 0 -178.5 -21t-94 -63.5t-27.5 -213.5v-1125q0 -135 39 -169.5t237 -34.5h131q159 0 250 19t171 97.5t157 264.5z" />
    <glyph glyph-name="M" unicode="M" horiz-adv-x="2404" 
d="M2347 0h-760v49h63q84 0 137 42t53 219v1196l-690 -1506h-44l-692 1506v-1196q0 -177 49 -219t142 -42h63v-49h-623v49h63q82 0 136 42t54 219v1170q0 139 -45 200t-208 61v49h507l649 -1401l639 1401h507v-49h-62q-83 0 -137 -42.5t-54 -218.5v-1170q0 -175 49.5 -218
t141.5 -43h62v-49z" />
    <glyph glyph-name="N" unicode="N" horiz-adv-x="1952" 
d="M1914 1741h-63q-115 0 -152.5 -56t-37.5 -205v-1509h-48l-1180 1441v-1102q0 -176 48.5 -218.5t141.5 -42.5h63v-49h-623v49h62q83 0 137.5 42t54.5 219v1245q-90 105 -169.5 145.5t-183.5 40.5v49h486l1094 -1343v1033q0 175 -49.5 218t-141.5 43h-62v49h623v-49z" />
    <glyph glyph-name="O" unicode="O" horiz-adv-x="1952" 
d="M1848 906q0 -399 -250 -673t-630 -274q-258 0 -452 121t-307.5 331.5t-113.5 490.5q0 404 260.5 666.5t633.5 262.5q246 0 436 -122t306.5 -330.5t116.5 -472.5zM1546 870q0 865 -582 865q-160 0 -285.5 -84.5t-203.5 -271.5t-78 -472q0 -390 149.5 -622t418.5 -232
q284 0 432.5 218.5t148.5 598.5z" />
    <glyph glyph-name="P" unicode="P" horiz-adv-x="1504" 
d="M554 838v-521q0 -178 50 -223t139 -45h69v-49h-767v49h67q112 0 150.5 56t38.5 212v1156q0 179 -49.5 223.5t-139.5 44.5h-67v49h656q372 0 539.5 -144.5t167.5 -350.5q0 -230 -149 -362t-404 -132q-129 0 -301 37zM554 1658v-745q140 -26 217 -26q160 0 248.5 118.5
t88.5 263.5q0 201 -107.5 307.5t-273.5 106.5q-67 0 -173 -25z" />
    <glyph glyph-name="Q" unicode="Q" horiz-adv-x="1952" 
d="M1191 -20q252 -436 646 -467v-42q-589 23 -1102 509q-640 244 -640 919q0 244 103 451t307.5 344t479.5 137q370 0 617 -274t247 -663q0 -324 -179 -573.5t-479 -340.5zM1547 861q0 396 -146.5 632t-431.5 236q-182 0 -310.5 -98.5t-195 -282t-66.5 -449.5
q0 -392 150.5 -621t421.5 -229q269 0 423.5 211t154.5 601z" />
    <glyph glyph-name="R" unicode="R" horiz-adv-x="1803" 
d="M1827 0h-478l-606 837q-67 -3 -109 -3q-22 0 -78 3v-520q0 -178 49.5 -223t137.5 -45h70v-49h-767v49h68q111 0 150.5 57.5t39.5 210.5v1156q0 178 -50 223t-140 45h-68v49h652q240 0 385.5 -31t252.5 -150t107 -280q0 -360 -441 -458l370 -513q138 -191 234.5 -244
t220.5 -65v-49zM556 1665v-745h74q237 0 376.5 102.5t139.5 289.5q0 193 -116.5 285.5t-266.5 92.5q-127 0 -207 -25z" />
    <glyph glyph-name="S" unicode="S" horiz-adv-x="1504" 
d="M235 -41h-49v614h49q91 -511 532 -511q153 0 254.5 82t101.5 211q0 145 -149 259q-352 205 -578.5 353.5t-226.5 392.5q0 201 151 336t373 135q144 0 302 -70q75 -33 105 -33q69 0 91 103h49v-619h-49q-39 274 -179.5 393.5t-315.5 119.5q-130 0 -223.5 -79.5
t-93.5 -194.5q0 -74 63.5 -157.5t382.5 -255.5q196 -105 297 -172.5t168.5 -175t67.5 -233.5q0 -214 -162.5 -356t-400.5 -142q-129 0 -319 63q-117 39 -161 39q-65 0 -80 -102z" />
    <glyph glyph-name="T" unicode="T" horiz-adv-x="1651" 
d="M1584 1370h-50q-28 308 -327 308h-253v-1368q0 -176 48.5 -218.5t141.5 -42.5h63v-49h-760v49h64q82 0 136 42t54 219v1368h-215q-169 0 -254.5 -62.5t-99.5 -245.5h-50l21 420h1461z" />
    <glyph glyph-name="U" unicode="U" horiz-adv-x="1952" 
d="M1923 1741h-67q-101 0 -145.5 -64t-44.5 -214v-726q0 -229 -44 -395.5t-207.5 -275t-437.5 -108.5q-265 0 -431.5 96.5t-218.5 249t-52 470.5v699q0 137 -36.5 202.5t-156.5 65.5h-67v49h773v-49h-69q-85 0 -138 -47t-53 -221v-780q0 -222 43 -353.5t150 -200t272 -68.5
q158 0 296.5 67.5t198 185t59.5 424.5v725q0 178 -50 223t-140 45h-67v49h633v-49z" />
    <glyph glyph-name="V" unicode="V" horiz-adv-x="1952" 
d="M1919 1741q-170 -18 -268 -259l-624 -1523h-49l-670 1543q-57 132 -107.5 180t-176.5 59v49h731v-49q-198 -19 -198 -120q0 -65 61 -206l455 -1049l423 1036q62 152 62 212q0 44 -29.5 71t-160.5 56v49h551v-49z" />
    <glyph glyph-name="W" unicode="W" horiz-adv-x="2552" 
d="M2531 1741q-76 0 -130.5 -42t-80 -105.5t-69.5 -191.5l-499 -1443h-53l-408 1145l-405 -1145h-48l-532 1486q-43 121 -66.5 179t-74.5 87.5t-129 29.5v49h662v-49h-31q-144 0 -144 -108q0 -48 58 -213l352 -1004l297 854l-95 270q-71 201 -249 201v49h697v-49h-48
q-142 0 -142 -117q0 -68 59 -235l343 -973l341 986q58 168 58 227q0 112 -198 112v49h535v-49z" />
    <glyph glyph-name="X" unicode="X" horiz-adv-x="1952" 
d="M1921 0h-769v49q177 0 177 101q0 50 -84 177l-304 460l-375 -481q-83 -106 -83 -156q0 -94 172 -101v-49h-635v49q222 21 441 298l422 533l-352 517q-119 175 -220.5 257t-255.5 87v49h828v-49q-183 -7 -183 -102q0 -48 63 -142l275 -411l318 403q80 101 80 152
q0 53 -41.5 76t-149.5 24v49h635v-49q-118 -1 -218.5 -83.5t-202.5 -212.5l-355 -454l384 -573q145 -216 226 -289t207 -80v-49z" />
    <glyph glyph-name="Y" unicode="Y" horiz-adv-x="1952" 
d="M1913 1741h-35q-63 0 -140 -44.5t-213 -257.5l-432 -680v-449q0 -176 50 -218.5t145 -42.5h58v-49h-760v49h63q117 0 154 56t37 205v424l-492 750q-75 114 -107 152t-98 71.5t-118 33.5v49h766v-49h-40q-166 0 -166 -116q0 -49 80 -172l374 -576l351 551q79 124 79 185
q0 128 -181 128v49h625v-49z" />
    <glyph glyph-name="Z" unicode="Z" horiz-adv-x="1651" 
d="M1576 474l-84 -474h-1458v49l1149 1634h-573q-136 0 -232 -45t-134 -296h-50l37 448h1324l-1176 -1682h734q185 0 271 85t149 289z" />
    <glyph glyph-name="bracketleft" unicode="[" horiz-adv-x="900" 
d="M803 -365h-581v2367h581v-104h-383v-2160h383v-103z" />
    <glyph glyph-name="backslash" unicode="\" horiz-adv-x="751" 
d="M756 -37h-105l-647 1914h106z" />
    <glyph glyph-name="bracketright" unicode="]" horiz-adv-x="900" 
d="M680 -366h-581v104h383v2160h-383v104h581v-2368z" />
    <glyph glyph-name="asciicircum" unicode="^" horiz-adv-x="1269" 
d="M1218 880h-121l-462 774l-462 -774h-124l569 947h39z" />
    <glyph glyph-name="underscore" unicode="_" 
d="M1375 -583h-1397v110h1397v-110z" />
    <glyph glyph-name="grave" unicode="`" horiz-adv-x="900" 
d="M590 1379h-46l-388 456h294z" />
    <glyph glyph-name="a" unicode="a" horiz-adv-x="1200" 
d="M1195 174q-148 -198 -283 -198q-140 0 -142 198q-167 -129 -229.5 -164t-156.5 -35q-143 0 -215.5 95t-72.5 216q0 69 32 141t183.5 167.5t458.5 206.5v48q0 315 -225 315q-77 0 -129.5 -42.5t-52.5 -105.5l3 -76q0 -127 -113 -127q-110 0 -110 128q0 139 133 221.5
t309 82.5q157 0 254 -49t122.5 -124t25.5 -242v-410q0 -164 12 -220.5t52 -56.5q39 0 144 105v-74zM770 260v461q-298 -112 -375 -197t-77 -176q0 -81 50.5 -150.5t137.5 -69.5q100 0 264 132z" />
    <glyph glyph-name="b" unicode="b" 
d="M198 116v1253q0 201 -18 268t-76 67q-37 0 -92 -21l-19 46l363 148h60v-876q175 244 379 244q220 0 341.5 -181t121.5 -413q0 -305 -191 -496.5t-432 -191.5q-210 0 -437 153zM416 916v-723q136 -134 286 -134q152 0 240 157t88 360q0 199 -91 340t-249 141
q-136 0 -274 -141z" />
    <glyph glyph-name="c" unicode="c" horiz-adv-x="1200" 
d="M1111 459q-45 -222 -181 -359t-325 -137q-245 0 -379 195.5t-134 444.5q0 270 162 456t415 186q148 0 278 -82.5t130 -208.5q0 -112 -123 -112q-72 0 -103 34t-44 125q-21 155 -181 155q-151 0 -235.5 -124.5t-84.5 -314.5q0 -221 107 -384.5t287 -163.5q249 0 373 309z
" />
    <glyph glyph-name="d" unicode="d" 
d="M1358 112l-359 -149h-60v173q-166 -173 -356 -173q-229 0 -361 183t-132 408q0 246 155.5 469t429.5 223q159 0 264 -102v224q0 220 -19 278t-75 58q-34 0 -91 -21l-17 46l360 148h59v-1398q0 -201 18.5 -272t74.5 -71q35 0 95 22zM939 228v623q0 127 -84 220t-196 93
q-133 0 -230.5 -132t-97.5 -373q0 -225 101 -388t274 -163q120 0 233 120z" />
    <glyph glyph-name="e" unicode="e" horiz-adv-x="1200" 
d="M1123 441q-31 -205 -171.5 -341.5t-323.5 -136.5q-236 0 -382 180t-146 446q0 290 150 473.5t409 183.5q234 0 349 -149t115 -343h-835q0 -246 120.5 -411t320.5 -165q245 0 353 289zM847 830q-17 322 -262 322q-120 0 -202 -90.5t-95 -231.5h559z" />
    <glyph glyph-name="f" unicode="f" horiz-adv-x="900" 
d="M557 1209h312v-95h-312v-795q0 -191 52 -231t116 -40h109v-48h-722v48h54q98 0 135.5 56.5t37.5 214.5v795h-235v95h235v79q0 284 146.5 435t358.5 151q121 0 226 -68t105 -155q0 -40 -34 -74.5t-74 -34.5q-69 0 -147 115q-83 122 -181 122q-111 0 -146.5 -86.5
t-35.5 -396.5v-87z" />
    <glyph glyph-name="g" unicode="g" 
d="M1059 1042q74 -96 74 -243q0 -180 -135.5 -295t-341.5 -115q-90 0 -183 27q-99 -86 -99 -152q0 -45 52.5 -61.5t238.5 -21.5q246 -6 361 -19.5t188 -81t73 -191.5q0 -111 -85.5 -222t-238.5 -180.5t-353 -69.5q-215 0 -372 80.5t-157 171.5q0 48 53.5 122t187.5 220
q-125 74 -125 146q0 108 211 284q-230 112 -230 366q0 209 150.5 323.5t331.5 114.5q173 0 300 -85h256q65 0 76 -9.5t11 -46.5q0 -43 -11.5 -52.5t-75.5 -9.5h-157zM902 766q0 228 -84 321.5t-180 93.5q-230 0 -230 -316q0 -186 72 -298.5t192 -112.5q230 0 230 312zM395 0
q-126 -164 -126 -232q0 -46 46.5 -89.5t152.5 -73.5t259 -30q181 0 322.5 66.5t141.5 196.5q0 68 -70 97.5t-270 34.5q-298 7 -456 30z" />
    <glyph glyph-name="h" unicode="h" 
d="M1335 0h-594v48h27q66 0 106.5 22.5t51 56t10.5 146.5v428q0 204 -40 294t-154 90q-140 0 -302 -173v-639q0 -137 38 -181t157 -44v-48h-599v48q107 0 145.5 41.5t38.5 183.5v1095q0 208 -18.5 272t-76.5 64q-27 0 -89 -21l-19 46l362 148h61v-884q229 252 404 252
q115 0 189.5 -67t98 -171.5t23.5 -305.5v-428q0 -128 30 -176.5t150 -48.5v-48z" />
    <glyph glyph-name="i" unicode="i" horiz-adv-x="751" 
d="M525 1744q0 -135 -133 -135q-135 0 -135 135q0 133 135 133q133 0 133 -133zM685 0h-587v48q111 0 147.5 44t36.5 181v466q0 210 -14.5 270t-80.5 60q-37 0 -89 -20l-19 48l365 148h58v-972q0 -136 36.5 -180.5t146.5 -44.5v-48z" />
    <glyph glyph-name="j" unicode="j" horiz-adv-x="751" 
d="M527 1742q0 -134 -136 -134q-135 0 -135 134q0 136 135 136q136 0 136 -136zM102 1049l-19 48l364 148h57v-1217q0 -290 -123.5 -450.5t-351.5 -160.5q-236 0 -236 133q0 112 108 112q59 0 163 -90q59 -51 101 -51q70 0 95.5 69.5t25.5 285.5v861q0 212 -15 272t-80 60
q-37 0 -89 -20z" />
    <glyph glyph-name="k" unicode="k" 
d="M1368 0h-588v48q86 2 86 54q0 29 -53 97l-371 474v-401q0 -139 35 -181t161 -43v-48h-616v48q123 0 162 41t39 176v1101q0 209 -18 274t-77 65q-28 0 -83 -22l-23 46l359 148h61v-1204l308 281q124 113 124 146q0 62 -94 67v42h526v-42q-191 -5 -338 -141l-311 -287
l311 -392q161 -203 226 -251t174 -48v-48z" />
    <glyph glyph-name="l" unicode="l" horiz-adv-x="751" 
d="M696 0h-593v48q107 0 142.5 44.5t35.5 180.5v1099q0 202 -17.5 267t-73.5 65q-34 0 -87 -21l-22 46l360 148h59v-1604q0 -136 39 -180.5t157 -44.5v-48z" />
    <glyph glyph-name="m" unicode="m" horiz-adv-x="2103" 
d="M2091 0h-597v48h25q68 0 108.5 23t51.5 58t11 144v520q0 174 -54 233.5t-147 59.5q-137 0 -312 -165v-648q0 -137 38 -181t159 -44v-48h-611v48q79 0 126 23t59 58t12 144v520q0 297 -206 297q-162 0 -310 -169v-648q0 -140 36.5 -182.5t159.5 -42.5v-48h-598v48
q111 0 147.5 44.5t36.5 180.5v462q0 210 -15.5 272t-79.5 62q-37 0 -89 -20l-20 48l365 148h57v-258q184 194 270 226t149 32q248 0 305 -258q221 258 423 258q318 0 318 -452v-520q0 -132 30 -178.5t152 -46.5v-48z" />
    <glyph glyph-name="n" unicode="n" 
d="M1340 0h-598v48h25q66 0 107 23.5t52 58t11 143.5v495q0 314 -187 314q-157 0 -313 -171v-638q0 -134 31.5 -179.5t165.5 -45.5v-48h-598v48h26q93 0 125 48.5t32 176.5v449q0 215 -18 281t-77 66q-37 0 -88 -20l-20 48l364 148h57v-256q212 256 405 256q313 0 313 -456
v-516q0 -128 31 -176.5t154 -48.5v-48z" />
    <glyph glyph-name="o" unicode="o" 
d="M1258 627q0 -260 -162.5 -462t-434.5 -202q-271 0 -420.5 199.5t-149.5 430.5q0 258 164.5 455t420.5 197q277 0 429.5 -194.5t152.5 -423.5zM1012 525q0 194 -49 335t-131.5 220t-196.5 79q-141 0 -219.5 -118t-78.5 -337q0 -258 101.5 -452.5t279.5 -194.5
q294 0 294 468z" />
    <glyph glyph-name="p" unicode="p" 
d="M420 70v-368q0 -142 39 -186.5t165 -44.5v-49h-633v49h33q97 0 137 38.5t40 200.5v1143q0 117 -21.5 164.5t-85.5 47.5q-32 0 -81 -18l-16 42l373 151h50v-283q169 288 387 288q197 0 324.5 -168t127.5 -429q0 -290 -154.5 -487.5t-396.5 -197.5q-170 0 -288 107z
M420 879v-451q0 -134 15 -208t83.5 -126t185.5 -52q100 0 169.5 58t110 165.5t40.5 258.5q0 243 -92 386t-230 143q-50 0 -106 -21.5t-176 -152.5z" />
    <glyph glyph-name="q" unicode="q" 
d="M1352 -578h-610v49h25q101 0 135.5 43.5t34.5 175.5v520q-208 -247 -396 -247q-211 0 -331 181.5t-120 405.5q0 261 158.5 478t463.5 217q151 0 252 -85q76 37 146 85h45v-1555q0 -136 37.5 -177.5t159.5 -41.5v-49zM937 293v568q0 148 -75 219.5t-191 71.5
q-172 0 -265.5 -141.5t-93.5 -363.5q0 -196 89 -347t277 -151q148 0 259 144z" />
    <glyph glyph-name="r" unicode="r" horiz-adv-x="900" 
d="M438 862v-580q0 -117 40 -175.5t171 -58.5v-48h-619v48q76 0 121.5 22.5t57 56.5t11.5 145v469q0 195 -17.5 261.5t-79.5 66.5q-41 0 -93 -20l-13 48l366 148h55v-272q152 272 312 272q61 0 114 -39t53 -108q0 -122 -116 -122q-31 0 -104 45q-72 46 -85 46
q-68 0 -174 -205z" />
    <glyph glyph-name="s" unicode="s" horiz-adv-x="1052" 
d="M181 -18h-44v431h44q74 -372 375 -372q78 0 142 47t64 135q0 109 -113 195q-171 87 -423 251q-94 90 -94 226q0 155 104 252.5t263 97.5q68 0 173 -31q64 -19 90 -19q35 0 60 50h44v-412h-44q-86 334 -328 334q-75 0 -140.5 -41t-65.5 -116q0 -142 208 -242l193 -93
q268 -129 268 -345q0 -155 -118 -261t-286 -106q-113 0 -253 40q-46 13 -72 13q-30 0 -47 -34z" />
    <glyph glyph-name="t" unicode="t" horiz-adv-x="751" 
d="M755 240q-93 -260 -305 -260q-232 0 -232 324v813h-192v43q238 98 369 446h41v-397h282v-92h-282v-784q0 -200 120 -200q102 0 148 107h51z" />
    <glyph glyph-name="u" unicode="u" 
d="M1348 112l-362 -149h-59v256q-236 -256 -411 -256q-309 0 -309 471v540q0 113 -43.5 149.5t-160.5 36.5v49h423v-809q0 -275 201 -275q130 0 300 172v685q0 102 -38.5 139t-155.5 39v49h411v-732q0 -200 18.5 -270.5t74.5 -70.5q41 0 92 22z" />
    <glyph glyph-name="v" unicode="v" 
d="M1327 1160q-76 -2 -112.5 -44.5t-66.5 -114.5l-429 -1038h-54l-431 1020q-71 168 -212 177v49h569v-49h-37q-105 0 -105 -92q0 -43 28 -110l281 -668l282 693q31 76 31 113q0 64 -139 64v49h395v-49z" />
    <glyph glyph-name="w" unicode="w" horiz-adv-x="1952" 
d="M1927 1160q-116 -17 -169 -155l-404 -1042h-54l-302 772l-353 -772h-48l-388 1016q-58 152 -192 181v49h507v-49q-113 -8 -113 -82q0 -40 22 -99l259 -695l260 566l-69 178q-22 57 -58 93t-133 39v49h575v-49q-161 -6 -161 -101q0 -26 11 -54l274 -695l255 669
q26 68 26 114q0 63 -126 67v49h381v-49z" />
    <glyph glyph-name="x" unicode="x" 
d="M1319 0h-571v48q118 0 118 75q0 28 -85 153l-176 259l-194 -259q-90 -120 -90 -143q0 -80 119 -85v-48h-395v48q43 5 85 34t167 194l253 336l-229 333q-87 127 -141 171t-144 44v49h569v-49q-98 0 -98 -67q0 -31 46 -98l44 -66l85 -137l99 137q96 133 96 165q0 66 -96 66
v49h410v-49q-80 -2 -137.5 -54t-151.5 -177l-165 -220l301 -433q97 -140 146 -182t135 -46v-48z" />
    <glyph glyph-name="y" unicode="y" 
d="M1336 1160q-62 -7 -98.5 -42t-79.5 -140l-493 -1206q-145 -355 -409 -355q-65 0 -121.5 39.5t-56.5 107.5q0 123 136 123q43 0 119 -29q52 -20 66 -20q98 0 180 200l86 210l-434 912q-89 186 -215 200v49h563v-49h-27q-119 0 -119 -89q0 -52 44 -143l294 -610l271 668
q22 54 22 107q0 67 -121 67v49h393v-49z" />
    <glyph glyph-name="z" unicode="z" horiz-adv-x="1200" 
d="M1156 1160l-810 -1072h441q114 0 201.5 34t101.5 249h45l-14 -371h-1067v48l803 1069h-396q-164 0 -215 -55t-59 -188h-52l8 335h1013v-49z" />
    <glyph glyph-name="braceleft" unicode="{" horiz-adv-x="1298" 
d="M1110 -411q-210 28 -353 172.5t-143 335.5q0 47 30 209q31 162 31 208q0 105 -86 183.5t-215 94.5v55q127 16 214 93.5t87 184.5q0 46 -31 207q-30 162 -30 210q0 210 153.5 346t342.5 161v-46q-298 -72 -298 -305q0 -47 29 -211q30 -163 30 -211q0 -315 -389 -453
q178 -66 283.5 -190.5t105.5 -269.5q0 -48 -30 -211q-29 -164 -29 -211q0 -232 298 -306v-46z" />
    <glyph glyph-name="bar" unicode="|" horiz-adv-x="541" 
d="M322 -583h-109v2460h109v-2460z" />
    <glyph glyph-name="braceright" unicode="}" horiz-adv-x="1298" 
d="M970 792q-116 -14 -208.5 -88t-92.5 -190q0 -46 30 -208q31 -162 31 -209q0 -190 -143 -335t-353 -173v46q298 74 298 306q0 47 -31 210q-30 163 -30 211q0 316 391 454q-174 65 -282.5 188.5t-108.5 271.5q0 48 30 211q31 163 31 211q0 233 -298 305v46
q187 -25 341.5 -160t154.5 -348q0 -48 -31 -209q-30 -161 -30 -207q0 -105 86 -183.5t215 -94.5v-55z" />
    <glyph glyph-name="asciitilde" unicode="~" horiz-adv-x="1463" 
d="M1435 891q-5 -163 -93.5 -264.5t-230.5 -101.5q-103 0 -492 160q-206 85 -289 85q-196 0 -246 -242h-58q8 163 91.5 265t217.5 102q71 0 145.5 -27t321.5 -126q242 -97 328 -97q221 0 245 246h60z" />
    <glyph glyph-name="DEL" horiz-adv-x="0" 
d="M-8 -16h-959v2433h959v-2433z" />
    <glyph glyph-name="glyph99" horiz-adv-x="1548" 
d="M1329 1638q0 -120 -73.5 -203t-165.5 -83q-51 0 -161 57q-180 94 -297 94q-237 0 -360 -225q165 102 344 102q266 0 426 -151t160 -332v-659q0 -102 -111 -170t-192 -68q-111 0 -221.5 63.5t-110.5 165.5v443q-336 0 -336 225q0 108 76.5 166.5t177.5 58.5
q118 0 212.5 -73t94.5 -222v-594q0 -122 90 -122q95 0 95 122v644q0 193 -121 291t-269 98q-106 0 -257.5 -55t-192.5 -117q78 544 553 544q95 0 201 -47q154 -67 201 -67q126 0 192 114h45zM560 898q0 121 -122 121q-121 0 -121 -121q0 -122 121 -122q122 0 122 122z" />
    <glyph glyph-name="glyph100" horiz-adv-x="0" 
d="M-565 1937q-433 197 -922 197q-128 0 -356 -41q39 251 234 392t421 141q253 0 438 -177t185 -512zM-672 2089q-48 142 -183 260t-329 118q-359 0 -524 -259q170 20 283 20q392 0 753 -139z" />
    <glyph glyph-name="glyph101" horiz-adv-x="0" 
d="M-700 1884q-217 88 -500.5 128.5t-397.5 40.5q-144 0 -409 -58q30 233 201 386.5t422 153.5q224 0 380 -110v266h226v-504q78 -177 78 -303zM-840 2011q-140 379 -568 379q-309 0 -480 -289q173 33 340 33q375 0 708 -123z" />
    <glyph glyph-name="glyph102" horiz-adv-x="0" 
d="M-706 2351q151 -156 151 -418q-449 181 -962 181q-146 0 -357 -25q48 255 244 393.5t387 138.5q98 0 209 -36q0 103 70.5 192.5t209.5 89.5q116 0 188.5 -77.5t72.5 -194.5q0 -99 -64.5 -170.5t-148.5 -73.5zM-615 2603q0 43 -20.5 76.5t-54 53.5t-75.5 20
q-62 0 -105.5 -44t-43.5 -106q0 -42 20 -75.5t53.5 -53.5t75.5 -20q54 0 102 39.5t48 109.5zM-678 2073q-158 374 -555 374q-164 0 -302.5 -74t-194.5 -178q130 13 250 13q490 0 802 -135z" />
    <glyph glyph-name="glyph103" horiz-adv-x="0" 
d="M-541 1860q-408 188 -874 188q-157 0 -408 -53q21 244 205 400.5t430 156.5v250h184v-275q108 -24 185 -106v377h205v-635q73 -172 73 -303zM-676 1999q-141 373 -549 373q-299 0 -473 -275q207 38 372 37q43 -2 144 -10q236 -15 506 -125z" />
    <glyph glyph-name="uni2026" unicode="&#x2026;" horiz-adv-x="2703" 
d="M597 110q0 -147 -146 -147q-147 0 -147 147q0 69 47 107.5t100 38.5q41 0 73.5 -20t52.5 -52.5t20 -73.5zM1498 110q0 -147 -146 -147q-147 0 -147 147q0 61 43 103.5t104 42.5q37 0 69 -17t54.5 -51t22.5 -78zM2400 110q0 -147 -146 -147q-147 0 -147 147q0 61 43 103.5
t104 42.5q41 0 74 -20t52.5 -52.5t19.5 -73.5z" />
    <glyph glyph-name="glyph105" horiz-adv-x="0" 
d="M-737 2642l-49 -639h-185l-53 639h287z" />
    <glyph glyph-name="glyph106" horiz-adv-x="0" 
d="M-1323 1790v135q199 18 274 116t75 217q-32 -13 -73 -13q-133 0 -195.5 78t-62.5 178q0 94 64 173t192 79q285 0 285 -336q0 -221 -154 -418q472 210 472 794q0 36 -5 82h177q4 -49 4 -90q0 -351 -159.5 -576t-439 -322t-454.5 -97zM-895 2507q0 56 -41 105.5t-115 49.5
q-44 0 -78.5 -21t-55.5 -55.5t-21 -78.5q0 -65 45.5 -110.5t109.5 -45.5q40 0 74 18t58 54t24 84z" />
    <glyph glyph-name="glyph107" horiz-adv-x="0" 
d="M-1057 1942l-45 102q131 115 131 291q0 114 -41.5 200t-113.5 86q-27 0 -45 -24l-152 -168l-180 188q-92 0 -144.5 -84.5t-52.5 -205.5q0 -267 242 -267q-51 35 -51 111q0 116 129 116q125 0 125 -128q0 -211 -191 -211q-137 0 -255 94t-118 313q0 197 101.5 309.5
t173.5 112.5q22 0 43 -22l170 -187l155 162q41 43 66 43q106 0 186 -113t80 -235q0 -132 -49 -213q205 147 205 368q0 191 -56 314l155 73q69 -162 69 -296q0 -286 -159 -467t-378 -262z" />
    <glyph glyph-name="glyph108" horiz-adv-x="0" 
d="M-565 2187h-332v-332h-225v332h-332v226h332v331h225v-331h332v-226z" />
    <glyph glyph-name="glyph109" horiz-adv-x="0" 
d="M-352 2847q-106 -357 -475 -443q69 -75 69 -178q0 -114 -70.5 -191t-181.5 -77q-127 0 -201.5 74.5t-74.5 195.5q0 106 66.5 182.5t187.5 96.5q194 28 271.5 63t130 136t52.5 280zM-877 2215q0 38 -17 70.5t-52 55.5t-80 23q-53 0 -100.5 -39.5t-47.5 -109.5
q0 -42 20 -75t53 -53t75 -20q70 0 109.5 47.5t39.5 100.5z" />
    <glyph glyph-name="uni0E48" unicode="&#xe48;" horiz-adv-x="0" 
d="M-205 2642l-49 -639h-184l-54 639h287z" />
    <glyph glyph-name="uni0E49" unicode="&#xe49;" horiz-adv-x="0" 
d="M-1012 1790v135q221 24 284.5 129.5t63.5 203.5q-31 -13 -72 -13q-136 0 -197 78.5t-61 177.5q0 95 62.5 173.5t189.5 78.5q289 0 289 -336q0 -221 -154 -418q472 211 472 794q0 36 -5 82h177q4 -49 4 -90q0 -359 -163 -585.5t-440 -318t-450 -91.5zM-584 2507
q0 64 -46 109.5t-110 45.5q-56 0 -106 -41t-50 -114q0 -74 50 -115t106 -41q64 0 110 45.5t46 110.5z" />
    <glyph glyph-name="uni0E4A" unicode="&#xe4a;" horiz-adv-x="0" 
d="M-434 1942l-45 102q131 115 131 291q0 128 -45 207t-110 79q-24 0 -46 -24l-151 -168l-180 188q-91 0 -144 -83t-53 -207q0 -267 242 -267q-51 35 -51 111q0 116 129 116q125 0 125 -128q0 -211 -191 -211q-147 0 -260 99.5t-113 307.5q0 197 101.5 309.5t173.5 112.5
q22 0 37 -16l176 -193q179 205 221 205q104 0 185 -111.5t81 -216.5q0 -149 -49 -233q205 147 205 368q0 191 -56 314l155 73q69 -162 69 -296q0 -511 -537 -729z" />
    <glyph glyph-name="uni0E4B" unicode="&#xe4b;" horiz-adv-x="0" 
d="M70 2187h-332v-332h-225v332h-332v226h332v331h225v-331h332v-226z" />
    <glyph glyph-name="uni0E4C" unicode="&#xe4c;" horiz-adv-x="0" 
d="M115 2847q-106 -357 -475 -443q69 -75 69 -178q0 -114 -70.5 -191t-181.5 -77q-127 0 -201.5 74.5t-74.5 195.5q0 106 66.5 182.5t187.5 96.5q195 29 271.5 63.5t129.5 135.5t53 280zM-410 2215q0 42 -20 75.5t-53.5 53.5t-75.5 20q-61 0 -104.5 -43.5t-43.5 -105.5
q0 -37 17 -69.5t51.5 -55.5t79.5 -23q62 0 105.5 43.5t43.5 104.5z" />
    <glyph glyph-name="glyph115" horiz-adv-x="2150" 
d="M218 1188h507v-103h-201v-677q45 30 123 30q221 0 221 -217q0 -221 -272 -221q-175 0 -236 74.5t-61 232.5v778h-176v136q27 163 176 289.5t363 126.5q197 0 327.5 -60t211.5 -156.5t81 -191.5v-959q0 -71 62.5 -127.5t138.5 -56.5q80 0 134 66t54 131v1187l225 168
v-1355q0 -112 -120.5 -197.5t-284.5 -85.5q-155 0 -294.5 76t-139.5 211v913q0 152 -118 229.5t-296 77.5q-189 0 -307 -124.5t-118 -194.5zM776 223q0 38 -18 68.5t-48.5 48.5t-68.5 18t-68.5 -18t-48.5 -48.5t-18 -68.5q0 -39 18.5 -69t48.5 -48t68 -18q34 0 64 15.5
t50.5 47t20.5 72.5z" />
    <glyph glyph-name="uni2018" unicode="&#x2018;" horiz-adv-x="900" 
d="M586 1831v-57q-219 -132 -219 -273q0 -82 50 -82q11 0 37 9q34 12 58 12q56 0 95.5 -40.5t39.5 -97.5q0 -77 -53 -116t-120 -39q-105 0 -167.5 83t-62.5 178q0 297 342 423z" />
    <glyph glyph-name="uni2019" unicode="&#x2019;" horiz-adv-x="900" 
d="M314 1147v62q85 49 152 113.5t67 157.5q0 80 -49 80q-7 0 -43 -11q-35 -10 -52 -10q-63 0 -98.5 44.5t-35.5 94.5q0 58 42.5 105.5t130.5 47.5q104 0 166.5 -83t62.5 -177q0 -295 -343 -424z" />
    <glyph glyph-name="uni201C" unicode="&#x201c;" horiz-adv-x="1200" 
d="M430 1831v-54q-216 -113 -216 -271q0 -82 42 -82q10 0 48 10q39 10 51 10q63 0 99 -44.5t36 -93.5q0 -67 -50.5 -111t-120.5 -44q-104 0 -167.5 84.5t-63.5 180.5q0 304 342 415zM1060 1827v-50q-218 -125 -218 -280q0 -74 45 -74q9 0 48 10q40 11 54 11q134 0 134 -135
q0 -74 -55.5 -116.5t-119.5 -42.5q-93 0 -160 78.5t-67 183.5q0 316 339 415z" />
    <glyph glyph-name="uni201D" unicode="&#x201d;" horiz-adv-x="1200" 
d="M781 1147v62q217 106 217 267q0 82 -42 82q-9 0 -48 -11q-38 -10 -51 -10q-56 0 -95.5 41t-39.5 97q0 65 49.5 110.5t119.5 45.5q96 0 164 -80t68 -187q0 -306 -342 -417zM152 1147v62q155 87 185.5 145.5t30.5 129.5q0 74 -45 74q-8 0 -47 -11q-38 -10 -53 -10
q-135 0 -135 135q0 66 52 112.5t123 46.5q94 0 161 -79.5t67 -185.5q0 -318 -339 -419z" />
    <glyph glyph-name="uni2022" unicode="&#x2022;" horiz-adv-x="946" 
d="M801 897q0 -118 -86.5 -223.5t-241.5 -105.5q-136 0 -232 96.5t-96 232.5q0 94 44.5 167t117.5 117t166 44q83 0 155 -38t122.5 -114t50.5 -176z" />
    <glyph glyph-name="uni2013" unicode="&#x2013;" 
d="M1374 598h-1398v96h1398v-96z" />
    <glyph glyph-name="uni2014" unicode="&#x2014;" horiz-adv-x="2703" 
d="M2727 598h-2752v98h2752v-98z" />
    <glyph glyph-name="glyph123" horiz-adv-x="0" 
d="M-496 2544q0 -178 -90 -316t-232 -216.5t-326 -78.5q-178 0 -313.5 86t-135.5 265q0 109 87 188.5t199 79.5q279 0 279 -268q0 -119 -86 -199q145 0 251 58.5t167 160.5t61 240h139zM-1136 2278q0 48 -22.5 85.5t-59.5 59.5t-85 22q-60 0 -113.5 -44t-53.5 -124
q0 -69 49 -117.5t118 -48.5q79 0 123 53.5t44 113.5z" />
    <glyph glyph-name="glyph124" horiz-adv-x="0" 
d="M-1270 2162q0 90 43 161t114 114t161 43q132 0 225.5 -93t93.5 -225q0 -90 -43 -161.5t-114.5 -114.5t-161.5 -43q-132 0 -225 93.5t-93 225.5zM-1125 2158q0 -53 26.5 -93.5t65 -60.5t82.5 -20q71 0 122 51t51 123q0 82 -55.5 127.5t-117.5 45.5q-72 0 -123 -50.5
t-51 -122.5z" />
    <glyph glyph-name="glyph125" horiz-adv-x="0" 
d="M-1434 2105q47 115 127 115q70 0 220 -70q210 -98 243 -98q77 0 115 86q-99 0 -146 44t-47 99q0 48 33 92.5t112 44.5q103 0 159 -76t56 -164q0 -110 -74.5 -189.5t-219.5 -79.5q-78 0 -237 84q-136 71 -185 71q-90 0 -111 -134q-233 132 -233 376q0 327 362 327
q26 0 122 -6t130 -6q143 0 192.5 58.5t49.5 195.5v127h205q8 -34 8 -73q0 -247 -135 -351t-316 -104q-42 0 -157 3q-115 4 -150 4q-205 0 -205 -228q0 -89 82 -148z" />
    <glyph glyph-name="glyph126" horiz-adv-x="0" 
d="M-745 3416l-62 -500h-164l-53 500h279z" />
    <glyph glyph-name="glyph127" horiz-adv-x="0" 
d="M-53 3854q0 -300 -105 -491t-325.5 -265.5t-397.5 -74.5v115q77 2 178 63t101 174q-258 0 -258 191q0 86 57 140t139 54q228 0 228 -278q0 -66 -36 -163t-122 -165q401 162 401 700h140zM-551 3566q0 120 -115 120q-110 0 -110 -125q0 -108 119 -108q106 0 106 113z" />
    <glyph glyph-name="glyph128" horiz-adv-x="0" 
d="M-602 2994l-33 80q98 85 98 231q0 81 -37 145t-90 64q-15 0 -143 -147l-139 147q-45 0 -92 -69.5t-47 -128.5q0 -236 180 -236q-45 30 -45 94q0 86 94 86q100 0 100 -106q0 -156 -159 -156q-124 0 -198.5 90t-74.5 226q0 138 72.5 228.5t142.5 90.5q27 0 162 -160
q132 156 166 156q90 0 148.5 -83.5t58.5 -178.5q0 -82 -37 -168q156 115 156 287q0 167 -41 241l118 54q52 -117 52 -230q0 -394 -412 -557z" />
    <glyph glyph-name="glyph129" horiz-adv-x="0" 
d="M-377 3207h-250v-250h-188v250h-250v193h250v250h188v-250h250v-193z" />
    <glyph glyph-name="glyph130" horiz-adv-x="0" 
d="M-194 3416q-68 -293 -365 -369q49 -51 49 -139q0 -89 -65 -153t-148 -64q-82 0 -155.5 55.5t-73.5 153.5q0 197 250 256q177 42 258.5 107t81.5 268zM-604 2904q0 131 -121 131q-129 0 -129 -131q0 -115 131 -115q41 0 80 31.5t39 83.5z" />
    <glyph glyph-name="glyph131" horiz-adv-x="410" 
 />
    <glyph glyph-name="uni0E01" unicode="&#xe01;" horiz-adv-x="1622" 
d="M1413 176l-160 -176h-65v1171q0 123 -106.5 239t-346.5 116q-350 0 -448 -297h475v-127h-246v-1102h-225v1110h-139q18 198 188.5 363t478.5 165q273 0 433.5 -144.5t160.5 -313.5v-1004z" />
    <glyph glyph-name="uni0E02" unicode="&#xe02;" horiz-adv-x="1630" 
d="M213 1212q47 82 172 82q184 0 184 -184q0 -231 -207 -231q-113 0 -178 85t-65 220q0 219 106 332.5t283 113.5q150 0 255 -85.5t105 -221.5v-1073q0 -148 156 -148q139 0 139 148v1208l176 180h50v-1278q0 -171 -118 -267.5t-251 -96.5q-137 0 -257 97t-120 272v847
q0 271 -197 271q-220 0 -233 -271zM479 1081q0 127 -110 127q-119 0 -119 -123q0 -127 115 -127q114 0 114 123z" />
    <glyph glyph-name="uni0E03" unicode="&#xe03;" horiz-adv-x="1860" 
d="M578 1204l-146 197q-24 33 -39 33q-65 0 -113.5 -102.5t-48.5 -219.5q0 -118 65 -213.5t163 -95.5q94 0 94 78q0 71 -77 91l-58 15l26 86q261 0 261 -217q0 -89 -66 -147t-156 -58q-148 0 -255 149t-107 341q0 153 80 323t192 170q13 0 49 -49l140 -188l170 215
q22 28 36 28q244 0 244 -268v-1057q0 -217 179 -217q182 0 182 205v1159l176 180h49v-1282q0 -155 -122 -257.5t-289 -102.5q-145 0 -272.5 96.5t-127.5 268.5v901q0 116 -45 116q-11 0 -29 -18z" />
    <glyph glyph-name="uni0E04" unicode="&#xe04;" horiz-adv-x="1630" 
d="M1389 0h-226v1176q0 169 -136.5 256.5t-321.5 87.5q-132 0 -245 -60.5t-180 -157t-67 -204.5q0 -129 98 -180q57 210 138.5 280t205.5 70q115 0 187.5 -66t72.5 -182q0 -117 -61 -188.5t-157 -71.5q-52 0 -80 5t-53 12l-18 5q-18 3 -18 -22v-760h-225v733q0 45 -58 101
q-122 117 -122 294q0 181 189.5 345.5t465.5 164.5q611 0 611 -503v-1135zM808 1006q0 42 -20 75t-53 53t-75 20q-52 0 -100.5 -40t-48.5 -108q0 -38 17 -70.5t52 -55.5t80 -23q53 0 100.5 39.5t47.5 109.5z" />
    <glyph glyph-name="uni0E05" unicode="&#xe05;" horiz-adv-x="1638" 
d="M1393 0h-226v1212q0 43 -86.5 134.5t-126.5 91.5q-11 0 -57 -54l-110 -127l-144 168q-74 86 -82 86q-39 0 -183 -148.5t-144 -260.5q0 -109 98 -230q66 188 143 256t185 68q113 0 181 -63t68 -175q0 -117 -58.5 -175t-129.5 -58q-68 0 -107 6l-55 10q-26 0 -26 -12v-729
h-226v729q-67 84 -127.5 169.5t-60.5 191.5q0 166 185.5 357t289.5 191q14 0 57 -57l127 -168l117 158q47 63 70 63q155 0 291.5 -156t136.5 -257v-1221zM820 957q0 59 -41.5 101t-100.5 42t-100.5 -42t-41.5 -101q0 -36 16.5 -67.5t49.5 -53t76 -21.5q40 0 72 19t51 51
t19 72z" />
    <glyph glyph-name="uni0E06" unicode="&#xe06;" horiz-adv-x="1982" 
d="M1732 0h-226q-78 204 -239 319t-213 115q-19 0 -19 -16v-225q0 -76 -77 -136.5t-182 -60.5q-124 0 -192.5 81t-68.5 214q0 104 63 180t159 93q73 13 73 22v770q0 82 -63 82q-20 0 -101 -92q-22 -26 -84 -89l-109 135t-65 66q-55 0 -105 -103.5t-50 -215.5
q0 -94 46.5 -207t186.5 -113q88 0 88 60q0 65 -67 149l118 66q70 -78 70 -209q0 -185 -213 -185q-149 0 -246.5 131t-97.5 335q0 143 97.5 307.5t176.5 164.5q5 0 76 -88q50 -61 105 -120q172 208 204 208q98 0 178 -76t80 -284v-684q336 -148 471 -299v1196l226 147v-1638z
M810 172v258q0 33 -29 33q-60 0 -111.5 -43.5t-51.5 -120.5q0 -172 122 -172q70 0 70 45z" />
    <glyph glyph-name="uni0E07" unicode="&#xe07;" horiz-adv-x="1290" 
d="M1044 0h-225l-696 860v107l696 -631v837q-54 -26 -127 -26q-100 0 -154.5 73t-54.5 166q0 114 82.5 183t192.5 69q286 0 286 -340v-1298zM857 1381q0 141 -140 141q-66 0 -103 -45t-37 -96q0 -40 19 -71.5t50.5 -50t70.5 -18.5q140 0 140 140z" />
    <glyph glyph-name="uni0E08" unicode="&#xe08;" horiz-adv-x="1454" 
d="M512 829q-33 -20 -109 -20q-70 0 -132 54t-62 163q0 101 75.5 166t190.5 65q107 0 184.5 -68.5t77.5 -172.5v-766q0 -156 120 -156q126 0 126 148v917q0 161 -121 254.5t-260 93.5q-227 0 -389 -221l-78 35q60 127 201 222t322 95q222 0 386 -135.5t164 -249.5v-946
q0 -118 -110 -216.5t-238 -98.5q-144 0 -246 114.5t-102 196.5v526zM545 1020q0 122 -121 122t-121 -122q0 -121 121 -121t121 121z" />
    <glyph glyph-name="uni0E09" unicode="&#xe09;" horiz-adv-x="1753" 
d="M1155 442q-56 9 -90 9q-106 0 -193.5 -59.5t-121 -139t-54.5 -252.5h-225v852q-41 -12 -105 -12q-86 0 -138 67.5t-52 142.5q0 109 76 170.5t162 61.5q105 0 193.5 -60t88.5 -169v-647q179 143 385 143q42 0 107 -8v622q0 147 -150.5 237.5t-341.5 90.5q-261 0 -540 -188
l-33 90q284 245 668 245q218 0 420 -117t202 -309v-728l-12 -29q24 -11 76 -74q34 -64 34 -160t-65.5 -160.5t-168.5 -64.5q-228 0 -228 227q0 135 106 219zM508 1051q0 121 -121 121t-121 -121t121 -121t121 121zM1424 229q0 148 -147 148q-141 0 -141 -153
q0 -142 141 -142q147 0 147 147z" />
    <glyph glyph-name="uni0E0A" unicode="&#xe0a;" horiz-adv-x="1659" 
d="M1593 1638q0 -156 -124.5 -301.5t-243.5 -181.5q205 -176 205 -549q0 -185 -95.5 -395.5t-232.5 -210.5h-594v102h205v1172q0 209 -246 209q-109 0 -177.5 -89.5t-68.5 -181.5q0 -249 157 -249q105 0 105 92q0 84 -123 84l-16 90q39 45 102 45q61 0 102.5 -54.5
t41.5 -121.5q0 -228 -201 -228q-149 0 -207.5 109t-58.5 232q0 176 112 301.5t281 125.5q167 0 294.5 -87t127.5 -355q101 0 166.5 32.5t143 165.5t120.5 244h225zM938 102h111q163 0 163 568q0 200 -66.5 316t-170.5 116q-37 0 -37 -12v-988z" />
    <glyph glyph-name="uni0E0B" unicode="&#xe0b;" horiz-adv-x="1802" 
d="M1343 1126q213 -206 213 -459q0 -200 -64 -433.5t-230 -233.5h-627v102h205v1135q0 63 -30.5 115.5t-76.5 52.5q-1 0 -168 -188q-175 221 -176 221q-54 0 -102.5 -100t-48.5 -193q0 -359 208 -359q82 0 82 82q0 71 -114 103l20 98q209 0 209 -192q0 -197 -213 -197
q-307 0 -307 479q0 295 266 467l174 -229l240 245q90 -28 176 -124t86 -224v-106h78q210 0 348 450h221q-75 -390 -369 -512zM1065 1065v-963h82q184 0 184 492q0 471 -184 471h-82z" />
    <glyph glyph-name="uni0E0C" unicode="&#xe0c;" horiz-adv-x="2073" 
d="M1831 0h-225q-151 192 -283 301l-66 43v-143q0 -79 -92.5 -140t-178.5 -61q-90 0 -155 71.5t-65 169.5q0 100 58.5 158.5t142.5 73.5q30 5 65 14v701q0 120 -116.5 203.5t-261.5 83.5q-333 0 -431 -287h453v-103h-176v-618q54 0 115 -61.5t61 -184.5q0 -221 -250 -221
q-108 0 -166.5 75.5t-58.5 173.5q0 118 73 177v659h-151q0 179 89 305.5t231.5 187t252.5 60.5q230 0 395.5 -138.5t165.5 -278.5v-758q99 -47 349 -262v1237l172 200h53v-1638zM591 219q0 66 -39 114t-114 48q-147 0 -147 -137q0 -160 143 -160q157 0 157 135zM1032 127
v229q0 21 -28 21q-140 0 -140 -148q0 -127 135 -127q33 0 33 25z" />
    <glyph glyph-name="uni0E0D" unicode="&#xe0d;" horiz-adv-x="2138" 
d="M209 1188h520v-103h-205v-672q24 25 123 25q221 0 221 -225q0 -213 -262 -213q-129 0 -218 75t-89 232v778h-176v136q0 114 156 265.5t426 151.5q201 0 389 -115.5t188 -293.5v-959q0 -81 66.5 -132.5t134.5 -51.5q73 0 130.5 61.5t57.5 135.5v1187l225 168v-1355
q0 -124 -127.5 -203.5t-277.5 -79.5q-155 0 -294.5 75t-139.5 212v913q0 143 -128 225t-288 82q-212 0 -322 -109.5t-110 -209.5zM773 224q0 132 -132 132t-132 -132t132 -132t132 132zM1159 -369q0 -254 205 -254q287 0 287 238v254h225q0 -225 -22 -344t-117 -197
t-299 -78q-146 0 -268.5 84t-122.5 244q0 112 52.5 205t157.5 93q158 0 158 -161q0 -149 -133 -149q-63 0 -123 65z" />
    <glyph glyph-name="uni0E0E" unicode="&#xe0e;" horiz-adv-x="1720" 
d="M1475 -819h-226q-17 23 -71 104q-177 274 -355 379q8 -16 8 -49q0 -111 -56 -201t-182 -90q-112 0 -180.5 69t-68.5 191q0 260 295 260q58 0 102 -12q26 224 234 315l74 -81q-101 -28 -149 -107t-48 -164q253 -158 397 -360v1728q0 130 -132 231t-334 101
q-399 0 -476 -307h484v-103h-205v-733q0 -193 -58.5 -272.5t-191.5 -79.5q-213 0 -213 229q0 115 77.5 180.5t159.5 65.5v610h-163v66q0 148 172.5 317.5t474.5 169.5t466.5 -176t164.5 -319v-1962zM483 223q0 150 -143 150q-139 0 -139 -150q0 -137 139 -137q143 0 143 137
zM717 -344q0 74 -103 74q-172 0 -172 -146q0 -159 129 -159q85 0 115.5 55t30.5 176z" />
    <glyph glyph-name="uni0E0F" unicode="&#xe0f;" horiz-adv-x="1741" 
d="M1495 -819h-225q-64 192 -185 192q-82 0 -147 -90h-127q-12 163 -86 246q-9 -97 -66.5 -155t-138.5 -58q-97 0 -165 70t-68 180q0 85 58 157t163 72q91 0 160 -57q0 50 50 153.5t200 231.5l114 -86q-132 -30 -201 -141t-69 -211q86 -106 156 -275q73 66 159 66
q44 0 118 -31l75 -31v1712q0 104 -62 180t-175 124.5t-192 48.5q-425 0 -509 -275h491v-119h-209v-856q0 -94 -66 -161.5t-179 -67.5q-112 0 -176 64.5t-64 177.5q0 211 260 235v608h-164v62q0 172 174.5 331.5t462.5 159.5q197 0 415 -137t218 -371v-1949zM502 229
q0 41 -19.5 72.5t-51 50.5t-71.5 19q-58 0 -99.5 -41.5t-41.5 -100.5q0 -35 16.5 -66.5t49 -53t75.5 -21.5q67 0 104.5 45t37.5 96zM631 -352q-46 63 -133 63q-57 0 -91 -47t-34 -102q0 -144 151 -144q107 0 107 230z" />
    <glyph glyph-name="uni0E10" unicode="&#xe10;" horiz-adv-x="1548" 
d="M1315 1638q0 -118 -73.5 -202t-155.5 -84q-62 0 -171 57q-183 94 -287 94q-243 0 -370 -225q165 102 344 102q276 0 431 -157t155 -326v-659q0 -102 -111 -170t-192 -68q-111 0 -221.5 63.5t-110.5 165.5v443q-336 0 -336 225q0 113 79.5 169t168.5 56q121 0 217 -73
t96 -222v-594q0 -122 90 -122q95 0 95 122v644q0 172 -112 280.5t-282 108.5q-102 0 -253.5 -55t-192.5 -117q17 245 171.5 394.5t391.5 149.5q84 0 191 -47q153 -67 200 -67q126 0 193 114h45zM545 898q0 121 -121 121q-122 0 -122 -121q0 -122 122 -122q121 0 121 122z
M606 -717q4 12 4 86q0 160 -114 262q0 -241 -205 -241t-205 219q0 82 67.5 140t135.5 58q75 0 125 -16q0 90 78 139l106 -16q-59 -80 -86 -160q74 -35 131 -139t57 -197h318v136q-49 -9 -80 -9q-205 0 -205 181q0 75 61 127.5t147 52.5q99 0 169 -64t70 -129v-233
q0 -197 -213 -197h-361zM1032 -279q0 111 -114 111q-45 0 -78 -34.5t-33 -79.5q0 -103 129 -103q96 0 96 106zM410 -307q-27 24 -107 24q-139 0 -139 -135q0 -119 110 -119q84 0 110 51t26 179z" />
    <glyph glyph-name="uni0E11" unicode="&#xe11;" horiz-adv-x="2146" 
d="M1903 0h-226v1200q0 141 -38.5 175t-92.5 34q-146 0 -178 -125l-326 -1284h-225v1237q10 45 10 76q0 80 -88 80l-159 -181l-181 246q-172 -100 -172 -376q0 -97 64.5 -196.5t173.5 -99.5q82 0 82 91q0 32 -41 114l86 62q82 -56 82 -183q0 -194 -213 -194
q-157 0 -248.5 137t-91.5 302q0 153 81.5 315t209.5 208l168 -254l196 254q110 -8 188 -91.5t78 -207.5v-704h46l196 717q32 117 129 201.5t203 84.5q137 0 212 -110t75 -250v-1278z" />
    <glyph glyph-name="uni0E12" unicode="&#xe12;" horiz-adv-x="2134" 
d="M1881 0h-229q-112 291 -283 385v-156q0 -102 -72 -165.5t-194 -63.5q-100 0 -175 77t-75 181q0 106 71.5 186t219.5 80v725q0 55 -59.5 118t-149.5 91l-193 -225l-204 262q-95 -43 -197 -178t-102 -231q0 -120 85.5 -298.5t184.5 -230.5l172 135q-164 72 -164 226
q0 85 62.5 163t183.5 78q102 0 172 -63t70 -183q0 -147 -190 -287q-186 -132 -246 -205t-60 -159v-262h-225v479q0 83 -83 287q-81 201 -81 316q0 129 133.5 308.5t292.5 247.5l196 -237l205 241q119 0 209.5 -49.5t151.5 -139t61 -200.5v-737q145 -67 287 -250v1221
l147 151h78v-1638zM897 921q0 57 -40 97.5t-95 40.5q-48 0 -91.5 -36.5t-43.5 -101.5q0 -57 40 -97.5t95 -40.5t95 40.5t40 97.5zM1152 131v295q-197 0 -197 -172q0 -154 150 -154q47 0 47 31z" />
    <glyph glyph-name="uni0E13" unicode="&#xe13;" horiz-adv-x="2187" 
d="M1556 381q-70 0 -156 -50t-171 -331h-225v1196q0 140 -103.5 219.5t-232.5 79.5q-190 0 -284.5 -68t-124.5 -142t-30 -97h508v-103h-205v-626q52 28 140 28q93 0 155.5 -66.5t62.5 -171.5q0 -249 -268 -249q-159 0 -237 96t-78 228v761h-184v58q0 119 61.5 229t182 188
t313.5 78q244 0 396.5 -124.5t152.5 -305.5v-913q104 184 393 184v1016l221 143v-1134l-49 -53q148 -54 148 -234q0 -89 -60.5 -153t-157.5 -64q-224 0 -224 214q0 101 56 167zM791 246q0 41 -19.5 73.5t-52 52t-73.5 19.5t-73.5 -19.5t-52 -52t-19.5 -73.5t19.5 -73.5
t52 -52t73.5 -19.5t73.5 19.5t52 52t19.5 73.5zM1851 221q0 128 -129 128q-128 0 -128 -128t128 -128q129 0 129 128z" />
    <glyph glyph-name="uni0E14" unicode="&#xe14;" horiz-adv-x="1638" 
d="M1397 0h-226v1110q0 177 -120 283t-291 106q-214 0 -358 -147t-144 -287q0 -72 40 -137q156 -219 222 -363l156 103q-174 64 -174 284q0 85 72.5 158.5t170.5 73.5q131 0 207 -74t76 -184q0 -189 -228 -346q-142 -97 -202.5 -173.5t-60.5 -181.5v-225h-226v512
q0 64 -89 230q-95 177 -95 298q0 287 212.5 442.5t442.5 155.5q318 0 466.5 -161.5t148.5 -358.5v-1118zM910 918q0 67 -45.5 115t-110.5 48q-72 0 -114 -52t-42 -111t41.5 -111t114.5 -52q65 0 110.5 48t45.5 115z" />
    <glyph glyph-name="uni0E15" unicode="&#xe15;" horiz-adv-x="1642" 
d="M1391 0h-226v1188q0 48 -58.5 136.5t-145.5 125.5l-181 -225l-223 274q-92 -27 -198.5 -150t-106.5 -311q0 -103 34.5 -167t117.5 -158q29 -34 75.5 -120.5t46.5 -117.5q9 17 101 87q9 7 84 81q-228 17 -228 256q0 115 80.5 178.5t170.5 63.5q250 0 250 -247
q0 -150 -232 -375l-185 -179q-45 -44 -57 -119v-221h-225v512q0 21 -56 133q-108 216 -108 409q0 196 149.5 362t313.5 222l196 -237l193 237q166 -29 292 -160.5t126 -289.5v-1188zM887 888q0 74 -50 115t-106 41q-44 0 -79 -21t-56 -56t-21 -79t21 -79t56 -56t79 -21
q56 0 106 41t50 115z" />
    <glyph glyph-name="uni0E16" unicode="&#xe16;" horiz-adv-x="1618" 
d="M1372 180l-119 -180h-106v1110q0 144 -91 260.5t-319 116.5q-411 0 -499 -299h458v-103h-184v-655q30 21 102 21q226 0 226 -215q0 -236 -234 -236q-132 0 -225.5 84t-93.5 207v794h-164q0 133 72 259t204.5 210t366.5 84q259 0 432.5 -162t173.5 -391v-905zM744 232
q0 56 -39.5 96t-96.5 40q-38 0 -68.5 -18.5t-49 -49t-18.5 -68.5q0 -39 18.5 -69t49 -48.5t68.5 -18.5q64 0 100 43.5t36 92.5z" />
    <glyph glyph-name="uni0E17" unicode="&#xe17;" horiz-adv-x="1843" 
d="M1595 0h-254v1290q0 172 -122 172q-85 0 -123 -37.5t-80 -199.5l-301 -1225h-225v1171q-54 -26 -117 -26q-132 0 -192 74t-60 175q0 106 77.5 175t200.5 69q143 0 229.5 -84.5t86.5 -230.5v-885l225 873q84 327 307 327q153 0 250.5 -101.5t97.5 -270.5v-1266zM519 1388
q0 152 -148 152q-62 0 -105 -44.5t-43 -107.5q0 -55 39 -103.5t109 -48.5q61 0 104.5 44.5t43.5 107.5z" />
    <glyph glyph-name="uni0E18" unicode="&#xe18;" horiz-adv-x="1556" 
d="M586 1483l131 -185v-94l532 -160v-774q0 -109 -75 -189.5t-179 -80.5h-688v102h185v1037l-369 90q0 149 136.5 279t354.5 130q148 0 422 -106q75 -29 123 -29q51 0 88.5 36.5t52 63.5l14.5 27q11 0 11 -20q0 -98 -64 -198.5t-171 -100.5q-97 0 -299 91q-56 25 -134 54z
M492 1249v234q-179 0 -246 -172zM1024 299v684l-307 94v-975h151q156 0 156 197z" />
    <glyph glyph-name="uni0E19" unicode="&#xe19;" horiz-adv-x="1884" 
d="M1270 410q-259 0 -416.5 -134t-157.5 -276h-225v1208q-52 -28 -127 -28q-97 0 -159 60t-62 153q0 91 62.5 168t207.5 77q303 0 303 -303v-1061q195 238 545 238q37 0 111 -8v979l155 155h70v-1118l-57 -57q131 -95 131 -232q0 -231 -230 -231q-233 0 -233 223
q0 135 82 187zM487 1402q0 130 -131 130t-131 -130q0 -132 131 -132t131 132zM1561 226q0 67 -45 104t-97 37q-51 0 -96 -37t-45 -104q0 -66 45 -103t96 -37t96.5 37t45.5 103z" />
    <glyph glyph-name="uni0E1A" unicode="&#xe1a;" horiz-adv-x="1843" 
d="M328 0v102h184v1074q-64 -47 -145 -47q-247 0 -247 256q0 124 91.5 188.5t204.5 64.5q321 0 321 -323v-1213h447q112 0 150 51t38 162v1323h225v-1343q0 -115 -57 -205t-160 -90h-1052zM503 1367q0 69 -47 107.5t-100 38.5q-60 0 -103 -42.5t-43 -103.5t43 -103.5
t103 -42.5q53 0 100 38.5t47 107.5z" />
    <glyph glyph-name="uni0E1B" unicode="&#xe1b;" horiz-adv-x="1843" 
d="M328 0v102h184v1074q-64 -47 -145 -47q-247 0 -247 256q0 124 91.5 188.5t204.5 64.5q321 0 321 -323v-1213h447q92 0 139 42t47 173v2135l145 182h82v-2339q0 -115 -57 -205t-160 -90h-1052zM503 1367q0 69 -47 107.5t-100 38.5q-60 0 -103 -42.5t-43 -103.5t43 -103.5
t103 -42.5q53 0 100 38.5t47 107.5z" />
    <glyph glyph-name="uni0E1C" unicode="&#xe1c;" horiz-adv-x="1602" 
d="M1416 180l-152 -180h-74v242l-376 622l-402 -631v-233h-225v1364q0 124 102.5 199t220.5 75q119 0 193 -62.5t74 -171.5q0 -101 -58 -167t-149 -66q-96 0 -158 37v-774l402 635l376 -627v1196h226v-1458zM675 1402q0 128 -128 128t-128 -128t128 -128t128 128z" />
    <glyph glyph-name="uni0E1D" unicode="&#xe1d;" horiz-adv-x="1602" 
d="M1416 180l-152 -180h-74v242l-376 622l-402 -631v-233h-225v1364q0 124 102.5 199t220.5 75q119 0 193 -62.5t74 -171.5q0 -101 -58 -167t-149 -66q-96 0 -158 37v-774l402 635l376 -627v2047l153 182h73v-2491zM675 1402q0 128 -128 128t-128 -128t128 -128t128 128z
" />
    <glyph glyph-name="uni0E1E" unicode="&#xe1e;" horiz-adv-x="1901" 
d="M1657 0h-225l-365 1397l-373 -1397h-225v1188q-53 -21 -96 -21q-252 0 -252 231q0 84 67.5 162t186.5 78q154 0 236.5 -78t82.5 -147v-991l328 1216h102l308 -1187v1187h225v-1638zM493 1392q0 66 -45 103t-96 37q-40 0 -71 -19t-50 -50t-19 -71q0 -51 37 -96t103 -45
q40 0 71.5 19t50.5 50.5t19 71.5z" />
    <glyph glyph-name="uni0E1F" unicode="&#xe1f;" horiz-adv-x="1901" 
d="M1659 0h-225l-365 1421l-373 -1421h-225v1186q-42 -15 -102 -15q-246 0 -246 222q0 108 71.5 176.5t182.5 68.5q146 0 232.5 -78t86.5 -147v-987l328 1212h102l308 -1212v2028l151 151h74v-2605zM495 1392q0 66 -45 103t-96 37q-40 0 -71 -19t-50 -50t-19 -71
q0 -51 37 -96t103 -45q40 0 71.5 19t50.5 50.5t19 71.5z" />
    <glyph glyph-name="uni0E20" unicode="&#xe20;" horiz-adv-x="1696" 
d="M1454 193l-131 -193h-94v1176q0 145 -124 222t-339 77q-322 0 -414 -267h484v-102h-201v-860q0 -108 -78.5 -177t-204.5 -69q-90 0 -159.5 74.5t-69.5 179.5q0 250 287 250v602h-172v57q0 140 177 307.5t453 167.5q252 0 419 -147t167 -328v-970zM500 254q0 139 -139 139
q-35 0 -66 -16t-52 -48t-21 -75q0 -57 40.5 -97.5t98.5 -40.5q50 0 94.5 36.5t44.5 101.5z" />
    <glyph glyph-name="uni0E21" unicode="&#xe21;" horiz-adv-x="1720" 
d="M674 397v-151q0 -106 -67 -176t-171 -70q-102 0 -177 57.5t-75 194.5q0 249 265 280v644q-47 -21 -111 -21q-72 0 -144.5 53.5t-72.5 171.5q0 120 76 189t186 69q126 0 208.5 -78t82.5 -192v-836q314 -250 383 -295t129 -45q61 0 61 132v1101l152 213h74v-1359
q0 -92 -72.5 -185.5t-169.5 -93.5q-76 0 -369 244q-20 19 -188 153zM508 1386q0 44 -21 78.5t-55 55t-78 20.5q-55 0 -104 -40.5t-49 -113.5q0 -43 21 -77t55 -55t77 -21q64 0 109 45t45 108zM449 176v246q-179 0 -179 -156q0 -147 101 -147q78 0 78 57z" />
    <glyph glyph-name="uni0E22" unicode="&#xe22;" horiz-adv-x="1405" 
d="M340 971q-43 21 -97.5 117t-54.5 190q0 141 99 250.5t241 109.5q97 0 165.5 -62t68.5 -161q0 -112 -56.5 -182t-164.5 -70q-132 0 -213 119q0 -137 67.5 -197.5t194.5 -60.5h135v-102h-111q-130 0 -175.5 -72.5t-45.5 -132.5v-328q0 -118 101 -194t210 -76
q124 0 214 70.5t90 175.5v1105l131 168h94v-1249q0 -145 -167.5 -267t-324.5 -122q-254 0 -413.5 126t-159.5 308v242q0 98 58 183t114 112zM649 1400q0 127 -127 127q-126 0 -126 -127q0 -126 126 -126q127 0 127 126z" />
    <glyph glyph-name="uni0E23" unicode="&#xe23;" horiz-adv-x="1401" 
d="M1167 1638q-65 -290 -237 -290q-53 0 -246 59t-242 59t-103 -45.5t-73 -126.5l717 -221v-778q0 -136 -92 -215.5t-244 -79.5q-107 0 -182.5 54t-75.5 175q0 93 57.5 165.5t176.5 72.5q85 0 135 -25v594l-635 193q23 154 133.5 281.5t202.5 127.5q97 0 342 -75
q78 -25 192 -25q64 0 174 100zM770 240q0 56 -40 96.5t-97 40.5q-64 0 -100.5 -44t-36.5 -93q0 -57 40 -97.5t97 -40.5q65 0 101 44t36 94z" />
    <glyph glyph-name="uni0E24" unicode="&#xe24;" horiz-adv-x="1618" 
d="M1372 -463l-119 -180h-106v1753q0 159 -100 268t-323 109q-228 0 -344.5 -91.5t-141.5 -207.5h458v-103h-184v-655q34 21 102 21q226 0 226 -209q0 -242 -234 -242q-135 0 -227 81t-92 210v794h-164q0 212 176.5 382.5t466.5 170.5q276 0 441 -166.5t165 -386.5v-1548z
M744 231q0 134 -134 134t-134 -134t134 -134t134 134z" />
    <glyph glyph-name="uni0E25" unicode="&#xe25;" horiz-adv-x="1618" 
d="M1372 0h-225v852q0 113 -123 195.5t-254 82.5q-129 0 -203.5 -99.5t-74.5 -215.5v-340q56 21 98 21q125 0 189.5 -72.5t64.5 -169.5q0 -125 -80 -189.5t-203 -64.5q-134 0 -214.5 91.5t-80.5 240.5v479q0 184 143.5 315t331.5 131q102 0 219.5 -51t186.5 -145v151
q0 141 -133.5 220t-313.5 79q-110 0 -266.5 -65t-277.5 -221l-33 123q111 133 277.5 211.5t320.5 78.5q272 0 461.5 -119t189.5 -327v-1192zM743 247q0 72 -49 112t-104 40q-43 0 -77 -20.5t-54.5 -54.5t-20.5 -77q0 -55 40 -104t112 -49q39 0 72.5 18t57 53.5t23.5 81.5z
" />
    <glyph glyph-name="uni0E26" unicode="&#xe26;" horiz-adv-x="1700" 
d="M1454 -455l-131 -192h-94v1823q0 144 -131 221.5t-317 77.5q-157 0 -282 -84.5t-147 -182.5h447v-102h-164v-860q0 -101 -78.5 -173.5t-204.5 -72.5q-117 0 -173 73.5t-56 180.5q0 124 86 187t201 63v602h-172v57q0 158 176 316.5t454 158.5q252 0 419 -147t167 -328
v-1618zM501 245q0 58 -41.5 99.5t-100.5 41.5q-35 0 -66.5 -16.5t-53 -49t-21.5 -75.5q0 -59 41.5 -100t99.5 -41q51 0 96.5 37t45.5 104z" />
    <glyph glyph-name="uni0E27" unicode="&#xe27;" horiz-adv-x="1450" 
d="M1024 446v771q0 140 -103.5 215t-232.5 75q-122 0 -235 -59t-256 -256l-78 80q230 366 561 366q280 0 424.5 -134t144.5 -279v-946q0 -132 -100.5 -205.5t-222.5 -73.5q-115 0 -186.5 63t-71.5 184q0 87 63 159.5t170 72.5q83 0 123 -33zM1054 241q0 61 -43.5 104.5
t-105.5 43.5q-42 0 -75 -20t-53 -53t-20 -75q0 -70 47.5 -109.5t100.5 -39.5q38 0 70.5 17t55.5 52t23 80z" />
    <glyph glyph-name="uni0E28" unicode="&#xe28;" horiz-adv-x="1597" 
d="M1556 1778q0 -330 -204 -525v-1253h-226v1106q-152 -80 -254 -107q0 -249 -229 -249q-70 0 -131 49v-799h-225v651q0 35 -50 120l-72 124q-42 72 -42 182q0 263 171 410t447 147q323 0 508 -229q107 117 107 266q0 57 -8 107h208zM1108 1245q-109 225 -437 225
q-185 0 -311.5 -97.5t-126.5 -258.5q0 -113 78 -217q4 147 85 248.5t208 101.5q200 0 236 -133q155 43 268 131zM778 992q0 131 -131 131t-131 -131t131 -131t131 131z" />
    <glyph glyph-name="uni0E29" unicode="&#xe29;" horiz-adv-x="1806" 
d="M274 0v102h181v1129q-46 -34 -122 -34q-89 0 -150.5 57t-61.5 151q0 233 248 233q123 0 219 -67t96 -199v-446q82 106 201 106q164 0 164 -176q0 -56 -17 -86l-119 -29q21 27 21 62q0 90 -78 90q-131 0 -131 -123q0 -85 88 -143t178 -58q124 0 226 57t102 169v688
l156 155h69v-1400q0 -68 -103 -153t-220 -85h-947zM484 1413q0 36 -16.5 67.5t-49.5 53t-76 21.5q-36 0 -67.5 -16.5t-53 -49.5t-21.5 -76q0 -36 16.5 -67.5t49.5 -53t76 -21.5q41 0 72.5 19.5t50.5 51t19 71.5zM1319 258v328q-133 -111 -313 -111q-191 0 -322 143v-516h446
q95 0 142 53t47 103z" />
    <glyph glyph-name="uni0E2A" unicode="&#xe2a;" horiz-adv-x="1802" 
d="M1683 1774q0 -345 -249 -451v-1323h-226v848q0 125 -115 199.5t-294 74.5q-246 0 -246 -307v-352q29 12 78 12q233 0 233 -237q0 -88 -61 -163t-176 -75q-299 0 -299 332v479q0 187 149 323t350 136q79 0 131 -17l172 74q-144 176 -377 176q-311 0 -548 -315l-82 78
q305 372 622 372q367 0 594 -213q70 47 103 114t33 235h208zM1188 1262l-160 -45q59 -16 170 -130l31 -34q4 5 4 37q0 98 -45 172zM767 244q0 59 -42 101.5t-102 42.5q-40 0 -72.5 -19.5t-52 -52t-19.5 -72.5q0 -68 46 -106t98 -38q37 0 68.5 16.5t53.5 50t22 77.5z" />
    <glyph glyph-name="uni0E2B" unicode="&#xe2b;" horiz-adv-x="1913" 
d="M1517 1163l32 -102v-1061h-233v1118q-95 0 -359 -269.5t-264 -393.5v-455h-225v1184q-49 -25 -102 -25q-102 0 -173 58.5t-71 166.5q0 81 62 165.5t190 84.5q319 0 319 -282v-668q161 212 299 336l123 110q54 48 123 99q-57 75 -57 164t63 165t191 76q229 0 229 -248
q0 -163 -147 -223zM1564 1390q0 142 -142 142q-40 0 -72 -19t-51 -51t-19 -72t19 -72t51 -51t72 -19t72 19t51 51t19 72zM485 1391q0 130 -130 130t-130 -130q0 -131 130 -131t130 131z" />
    <glyph glyph-name="uni0E2C" unicode="&#xe2c;" horiz-adv-x="1864" 
d="M1880 1733q0 -152 -40 -268t-226 -216v-1249h-225l-381 1167l-398 -1167h-225v1155q-109 0 -185.5 63.5t-76.5 184.5q0 83 61 157t182 74q244 0 244 -250v-1048l402 1171l377 -1163v889q-72 10 -140.5 77t-68.5 177q0 95 61 170.5t189 75.5q89 0 158 -56t83 -141
q33 33 33 74v123h176zM1581 1491q0 168 -156 168q-161 0 -161 -168q0 -63 45 -109.5t108 -46.5q68 0 116 44.5t48 111.5zM501 1394q0 140 -140 140q-40 0 -71 -19t-50 -50t-19 -71t19 -71.5t50.5 -50t70.5 -18.5q40 0 71 19t50 50t19 71z" />
    <glyph glyph-name="uni0E2D" unicode="&#xe2d;" horiz-adv-x="1614" 
d="M492 782v-413q0 -115 94.5 -191t225.5 -76q113 0 224 71t111 183v820q0 170 -134.5 255t-353.5 85q-296 0 -462 -324l-80 51q57 164 202.5 277.5t430.5 113.5q273 0 447.5 -133t174.5 -321v-807q0 -107 -179 -240t-370 -133q-234 0 -395.5 133t-161.5 248v594
q0 139 87 215t228 76q104 0 174 -67.5t70 -186.5q0 -93 -62 -168t-195 -75q-36 0 -76 13zM723 1006q0 149 -139 149q-142 0 -142 -139q0 -145 140 -145q141 0 141 135z" />
    <glyph glyph-name="uni0E2E" unicode="&#xe2e;" horiz-adv-x="1520" 
d="M1407 1638q-26 -190 -180 -303l36 -90v-844q0 -180 -150 -290.5t-358 -110.5q-179 0 -337 110.5t-158 311.5v332q0 122 99.5 208.5t273.5 86.5q102 0 166.5 -75.5t64.5 -185.5q0 -115 -76 -167t-168 -52q-78 0 -135 37v-241q0 -110 82 -184.5t197 -74.5q100 0 187 71
t87 200v848q-153 -111 -307 -111q-159 0 -296.5 59t-137.5 183q0 133 123 207.5t282 74.5q222 0 414 -172q53 78 53 172h238zM989 1339q-94 164 -311 164q-141 0 -216 -47t-75 -108q0 -64 94 -106t188 -42q205 0 320 139zM768 803q0 37 -17 68.5t-50.5 54t-77.5 22.5
q-41 0 -73.5 -19.5t-52 -52t-19.5 -73.5q0 -37 17 -68.5t50.5 -54t77.5 -22.5q37 0 68.5 17t54 50.5t22.5 77.5z" />
    <glyph glyph-name="uni0E2F" unicode="&#xe2f;" horiz-adv-x="1638" 
d="M1290 0h-225v1352q0 78 -53 78q-74 0 -97 -140q-35 -201 -153 -379t-320 -178q-109 0 -212 76t-103 235q0 132 78.5 228t216.5 96q176 0 176 -74v-184q-39 82 -135 82q-152 0 -152 -178q0 -70 53.5 -112t125.5 -42q110 0 217.5 156t107.5 389q0 74 46.5 153.5t109.5 79.5
h319v-1638z" />
    <glyph glyph-name="uni0E30" unicode="&#xe30;" horiz-adv-x="1466" 
d="M1220 1586q0 -254 -186.5 -432.5t-461.5 -178.5q-199 0 -324 96t-125 255q0 113 87.5 189.5t178.5 76.5q151 0 223 -79.5t72 -203.5q0 -106 -82 -182q213 0 346 128.5t133 330.5h139zM580 1320q0 48 -22.5 85t-59.5 59.5t-85 22.5q-60 0 -113.5 -44t-53.5 -124
q0 -78 53.5 -121.5t113.5 -43.5q80 0 123.5 53t43.5 113zM1220 619q0 -254 -186 -432.5t-462 -178.5q-222 0 -335.5 104.5t-113.5 246.5q0 111 86 188.5t180 77.5q151 0 223 -79.5t72 -203.5q0 -106 -82 -182q145 0 251 58.5t167 160.5t61 240h139zM580 353q0 69 -48.5 118
t-118.5 49q-69 0 -118 -49.5t-49 -118.5t49 -117.5t118 -48.5q70 0 118.5 49t48.5 118z" />
    <glyph glyph-name="uni0E31" unicode="&#xe31;" horiz-adv-x="0" 
d="M118 2544q0 -254 -186 -432.5t-462 -178.5q-222 0 -335.5 104.5t-113.5 246.5q0 111 86 188.5t180 77.5q169 0 232 -90.5t63 -192.5q0 -106 -82 -182q213 0 346 128.5t133 330.5h139zM-522 2278q0 48 -22.5 85t-59.5 59.5t-85 22.5q-69 0 -118 -49t-49 -119
q0 -78 53.5 -121.5t113.5 -43.5q80 0 123.5 53t43.5 113z" />
    <glyph glyph-name="uni0E32" unicode="&#xe32;" horiz-adv-x="1167" 
d="M963 0h-226v1270q0 250 -262 250q-142 0 -319 -185l-33 99q165 200 405 200q435 0 435 -323v-1311z" />
    <glyph glyph-name="uni0E33" unicode="&#xe33;" horiz-adv-x="1167" 
d="M-66 2290q0 -129 -86 -223.5t-221 -92.5q-146 0 -226.5 100.5t-80.5 215.5q0 132 90 217.5t221 85.5q128 0 215.5 -81.5t87.5 -221.5zM-198 2285q0 68 -46 127.5t-131 59.5q-179 0 -179 -191q0 -78 54 -132t131 -54q171 0 171 190zM963 0h-226v1270q0 250 -262 250
q-181 0 -319 -185l-33 99q165 200 405 200q155 0 295 -82.5t140 -240.5v-1311z" />
    <glyph glyph-name="uni0E34" unicode="&#xe34;" horiz-adv-x="0" 
d="M-135 1937q-433 197 -922 197q-128 0 -356 -41q37 245 228.5 389t426.5 144q260 0 441.5 -180.5t181.5 -508.5zM-242 2089q-55 157 -191 267t-284 110q-376 0 -561 -258q170 20 283 20q392 0 753 -139z" />
    <glyph glyph-name="uni0E35" unicode="&#xe35;" horiz-adv-x="0" 
d="M-250 1884q-217 88 -500.5 128.5t-397.5 40.5q-145 0 -408 -58q29 232 199.5 386t422.5 154q225 0 381 -110v266h225v-504q78 -171 78 -303zM-389 2011q-140 379 -568 379q-310 0 -481 -289q173 33 340 33q375 0 709 -123z" />
    <glyph glyph-name="uni0E36" unicode="&#xe36;" horiz-adv-x="0" 
d="M-283 2302q144 -183 144 -418q-455 180 -963 180q-153 0 -356 -24q46 250 238 391t393 141q99 0 209 -37q0 116 77.5 199.5t189.5 83.5q107 0 190 -67.5t83 -206.5q0 -209 -205 -242zM-205 2541q0 162 -153 162q-146 0 -146 -155q0 -60 48 -101t110 -41q55 0 98 39.5
t43 95.5zM-262 2023q-160 369 -505 369q-369 0 -548 -246q146 13 250 13q234 0 400.5 -23.5t402.5 -112.5z" />
    <glyph glyph-name="uni0E37" unicode="&#xe37;" horiz-adv-x="0" 
d="M-90 1860q-174 81 -427.5 133.5t-432.5 52.5q-182 0 -422 -51q19 242 203.5 399.5t431.5 157.5v250h184v-275q117 -26 184 -106v377h205v-635q74 -171 74 -303zM-225 1999q-139 373 -549 373q-153 0 -285.5 -76.5t-189.5 -194.5q189 33 344 33q345 0 680 -135z" />
    <glyph glyph-name="uni0E38" unicode="&#xe38;" horiz-adv-x="0" 
d="M-246 -786h-225v233q-35 -15 -85 -15q-230 0 -230 216q0 90 65.5 165.5t196.5 75.5q278 0 278 -305v-370zM-438 -352q0 131 -127 131q-135 0 -135 -135q0 -123 131 -123t131 127z" />
    <glyph glyph-name="uni0E39" unicode="&#xe39;" horiz-adv-x="0" 
d="M-795 -569q-36 -13 -78 -13q-114 0 -175.5 70t-61.5 160q0 89 57 161t172 72q106 0 172 -53.5t66 -138.5v-291q0 -103 102 -103q86 0 86 82v476h226v-521q0 -73 -84 -120.5t-187 -47.5q-295 0 -295 267zM-752 -360q0 131 -131 131t-131 -131q0 -132 131 -132t131 132z
" />
    <glyph glyph-name="uni0E3A" unicode="&#xe3a;" horiz-adv-x="0" 
d="M-209 -406q0 -74 -51.5 -116.5t-108.5 -42.5q-46 0 -84 23.5t-61 61t-23 83.5q0 76 53 117.5t115 41.5q160 0 160 -168z" />
    <glyph glyph-name="glyph190" horiz-adv-x="905" 
 />
    <glyph glyph-name="glyph191" horiz-adv-x="905" 
d="M848 -394h-69v138q-72 51 -172 51h-332q-87 0 -151 -45v-144h-70v394h794v-394z" />
    <glyph glyph-name="uni0E3F" unicode="&#xe3f;" horiz-adv-x="1803" 
d="M1000 2v-164h-200v162h-755v49h67q84 0 138 45.5t54 222.5v1156q0 177 -51.5 222.5t-140.5 45.5h-67v49h755v222h200v-229q572 -48 572 -471q0 -294 -323 -399q406 -85 406 -423q0 -185 -150.5 -332.5t-504.5 -155.5zM800 1702q-83 -2 -243 -30v-687q97 -19 243 -19v736z
M1000 1676v-693q296 61 296 340q0 262 -296 353zM800 95v780h-9q-170 0 -234 -12v-734q123 -28 243 -34zM1000 855v-750q349 72 349 362q0 305 -349 388z" />
    <glyph glyph-name="uni0E40" unicode="&#xe40;" horiz-adv-x="688" 
d="M182 422v1053l164 163h62v-1159q98 0 151 -68.5t53 -152.5q0 -258 -243 -258q-93 0 -170.5 62t-77.5 178q0 102 61 182zM522 246q0 155 -157 155q-64 0 -109 -45t-45 -108q0 -170 158 -170q153 0 153 168z" />
    <glyph glyph-name="uni0E41" unicode="&#xe41;" horiz-adv-x="1544" 
d="M1004 422v1053l163 163h62v-1159q67 0 136 -57.5t69 -163.5q0 -258 -244 -258q-105 0 -176.5 68t-71.5 172t62 182zM1343 250q0 151 -161 151q-71 0 -110.5 -49t-39.5 -106q0 -68 42 -118t114 -50q155 0 155 172zM184 422v1053l164 163h62v-1159q103 0 153.5 -74
t50.5 -147q0 -258 -243 -258q-94 0 -171 62t-77 184q0 96 61 176zM524 240q0 161 -164 161q-147 0 -147 -166q0 -49 42 -103t114 -54q155 0 155 162z" />
    <glyph glyph-name="uni0E42" unicode="&#xe42;" horiz-adv-x="1401" 
d="M1270 2576q-120 -290 -238 -290q-56 0 -345 142q-171 83 -204 83q-71 0 -180 -103l684 -352v-1577q96 0 150.5 -70.5t54.5 -152.5q0 -256 -242 -256q-92 0 -171 62.5t-79 185.5q0 130 62 198v1631l-639 311q242 307 455 307q68 0 291 -125q167 -93 220 -93q57 0 115 99
h66zM1102 246q0 155 -160 155q-151 0 -151 -161q0 -69 47 -115.5t104 -46.5q160 0 160 168z" />
    <glyph glyph-name="uni0E43" unicode="&#xe43;" horiz-adv-x="1253" 
d="M688 441v1902q0 197 -172 197q-299 0 -299 -283q0 -221 180 -221q126 0 126 103q0 97 -122 175l43 58q158 -61 158 -230q0 -76 -47 -140.5t-137 -64.5q-295 0 -295 336q0 191 113.5 302.5t312.5 111.5q192 0 278 -95t86 -241v-1872q104 0 155.5 -74t51.5 -149
q0 -110 -63 -183t-179 -73q-118 0 -184.5 69t-66.5 168q0 108 61 204zM1029 243q0 70 -47.5 115t-109.5 45q-155 0 -155 -152q0 -173 160 -173q152 0 152 165z" />
    <glyph glyph-name="uni0E44" unicode="&#xe44;" horiz-adv-x="1409" 
d="M827 451v2052q0 106 -73 106q-30 0 -66.5 -37t-36.5 -73v-418q0 -77 -62 -137t-130 -60q-81 0 -151 62t-70 139v573q0 66 -115 140q6 14 20 41q76 0 167 -43t91 -166v-537q0 -115 81 -115q83 0 83 123v373q0 92 81.5 169t175.5 77q98 0 166.5 -61.5t68.5 -151.5v-2024
q89 0 145 -67.5t56 -167.5q0 -98 -57.5 -173t-188.5 -75q-98 0 -172 58t-74 190q0 113 61 203zM1168 250q0 71 -51.5 112t-108.5 41q-38 0 -71.5 -18t-57.5 -54t-24 -81q0 -172 149 -172q164 0 164 172z" />
    <glyph glyph-name="uni0E45" unicode="&#xe45;" horiz-adv-x="1196" 
d="M963 -639h-226v1917q0 126 -73 184t-168 58q-111 0 -183.5 -35t-158.5 -146l-31 70q29 89 136.5 159t219.5 70q484 0 484 -327v-1950z" />
    <glyph glyph-name="uni0E46" unicode="&#xe46;" horiz-adv-x="1741" 
d="M1405 -524h-225v1761q0 59 -73.5 144t-148.5 85q-25 0 -40 -16l-152 -164l-127 139q-53 58 -107 58q-92 0 -203.5 -114t-111.5 -284q0 -137 51.5 -179t137.5 -42t86 78q0 90 -86 139l90 74q143 -41 143 -213q0 -176 -180 -176q-332 0 -332 311q0 277 198.5 419t264.5 142
l176 -204l176 204q164 -27 313.5 -150.5t149.5 -238.5v-1773z" />
    <glyph glyph-name="uni0E47" unicode="&#xe47;" horiz-adv-x="0" 
d="M-1127 2105q47 115 127 115q70 0 220 -70q210 -98 243 -98q77 0 115 86q-99 0 -146 44t-47 99q0 46 33 91.5t112 45.5q103 0 159 -76t56 -164q0 -97 -67.5 -183t-226.5 -86q-78 0 -237 84q-136 71 -185 71q-90 0 -111 -134q-233 132 -233 376q0 327 343 327q48 0 153 -7
q79 -5 118 -5q90 0 135.5 16t76 77t30.5 161v127h205q8 -10 8 -73q0 -166 -54.5 -258.5t-161 -144.5t-235.5 -52q-27 0 -141 3q-114 4 -166 4q-205 0 -205 -228q0 -89 82 -148z" />
    <glyph glyph-name="glyph201" horiz-adv-x="0" 
d="M-295 3416l-61 -500h-164l-53 500h278z" />
    <glyph glyph-name="glyph202" horiz-adv-x="0" 
d="M207 3780q0 -485 -247.5 -658t-580.5 -173v115q89 5 184 67.5t95 169.5q-258 0 -258 191q0 89 59.5 141.5t136.5 52.5q228 0 228 -268q0 -213 -158 -338q401 162 401 700h140zM-291 3492q0 120 -114 120q-111 0 -111 -125q0 -108 119 -108q106 0 106 113z" />
    <glyph glyph-name="glyph203" horiz-adv-x="0" 
d="M-356 2994l-33 80q98 85 98 231q0 76 -35 142.5t-92 66.5q-15 0 -143 -147l-139 147q-41 0 -90 -66.5t-49 -132.5q0 -235 180 -235q-45 30 -45 94q0 86 94 86q100 0 100 -106q0 -156 -159 -156q-92 0 -182.5 76t-90.5 240q0 149 77.5 234t137.5 85q27 0 162 -160
q132 156 166 156q90 0 148.5 -83.5t58.5 -178.5q0 -82 -37 -168q156 115 156 287q0 167 -41 241l118 54q52 -118 52 -230q0 -399 -412 -557z" />
    <glyph glyph-name="glyph204" horiz-adv-x="0" 
d="M-90 3207h-250v-250h-188v250h-250v193h250v245h188v-245h250v-193z" />
    <glyph glyph-name="glyph205" horiz-adv-x="0" 
d="M377 3416q-68 -293 -365 -369q49 -51 49 -139q0 -102 -61.5 -159.5t-155.5 -57.5q-92 0 -158.5 59t-66.5 150q0 196 250 256q177 42 258.5 106.5t81.5 268.5zM-33 2904q0 131 -121 131q-129 0 -129 -131q0 -115 131 -115q41 0 80 31.5t39 83.5z" />
    <glyph glyph-name="uni0E4D" unicode="&#xe4d;" horiz-adv-x="0" 
d="M-248 2173q0 -114 -83 -222t-222 -108q-116 0 -220 85t-104 237q0 117 82 217t234 100q160 0 236.5 -94.5t76.5 -214.5zM-401 2163q0 65 -42.5 119.5t-121.5 54.5q-71 0 -117.5 -51t-46.5 -123q0 -77 49 -127.5t123 -50.5q156 0 156 178z" />
    <glyph glyph-name="uni0E4E" unicode="&#xe4e;" horiz-adv-x="0" 
d="M-45 2855l-115 -127q-67 16 -94 16q-176 0 -176 -139q0 -119 172 -119l-53 -131q-262 0 -262 -164q0 -106 110 -106q55 0 103 37l69 -123q-72 -66 -176 -66q-128 0 -199 74t-71 184q0 113 82 188t213 75q-152 16 -152 167q0 122 105 196.5t227 74.5q141 0 217 -37z" />
    <glyph glyph-name="uni0E4F" unicode="&#xe4f;" horiz-adv-x="1753" 
d="M1528 758q0 -336 -198 -547t-523 -211q-184 0 -333.5 80t-256 256t-106.5 430q0 201 91.5 355t248 245.5t360.5 91.5q208 0 369 -92t254.5 -248.5t93.5 -359.5zM1413 758q0 174 -79 307t-213.5 212t-309.5 79q-248 0 -421 -171t-173 -419q0 -185 67.5 -332.5t204 -239.5
t326.5 -92q266 0 432 187.5t166 468.5zM1159 764q0 -143 -101 -244t-247 -101q-145 0 -240.5 104.5t-95.5 253.5q0 153 107 235t236 82q125 0 233 -86.5t108 -243.5z" />
    <glyph glyph-name="uni0E50" unicode="&#xe50;" horiz-adv-x="1647" 
d="M1401 598q0 -269 -179 -433.5t-427 -164.5q-301 0 -484 179t-183 422q0 281 207 440t460 159q270 0 438 -186t168 -416zM1167 598q0 175 -107 292.5t-277 117.5q-147 0 -282.5 -100.5t-135.5 -309.5q0 -172 130 -295t300 -123q172 0 272 130t100 288z" />
    <glyph glyph-name="uni0E51" unicode="&#xe51;" horiz-adv-x="1655" 
d="M1010 -86q-33 25 -33 57q0 45 95 160q159 192 159 406q0 175 -141.5 316.5t-325.5 141.5q-223 0 -345 -142t-122 -319q0 -142 78.5 -260t212.5 -118q110 0 159 37t70 126q-72 -27 -95 -27q-80 0 -135 61.5t-55 145.5q0 101 62.5 162.5t144.5 61.5q141 0 208 -93t67 -229
t-107 -266.5t-344 -130.5q-127 0 -229 74t-157.5 187.5t-55.5 299.5q0 202 82 333.5t223 212.5t331 81q193 0 339 -85.5t230.5 -231t84.5 -338.5q0 -207 -156 -419t-225 -212q-12 0 -20 8z" />
    <glyph glyph-name="uni0E52" unicode="&#xe52;" horiz-adv-x="2327" 
d="M123 1794q52 74 180 74q193 0 193 -213v-1344q0 -69 44.5 -118.5t110.5 -49.5h987q101 0 188 153.5t87 308.5q0 337 -168 337q-79 0 -135 -54l-37 -36q29 -135 29 -242q0 -126 -44.5 -245.5t-115.5 -139.5q-12 6 -12 25q0 9 27 107q38 146 38 208q0 168 -89 260.5
t-239 92.5q-154 0 -228.5 -96t-74.5 -199q0 -97 64 -172.5t178 -81.5q-72 48 -72 173q0 52 49.5 99.5t128.5 47.5q160 0 160 -193q0 -86 -35.5 -141t-88.5 -74t-171 -19q-101 0 -182 48t-133.5 141.5t-52.5 207.5q0 196 125.5 340t287.5 144q268 0 385 -205q96 229 320 229
q129 0 201.5 -127t72.5 -335q0 -269 -156 -487t-335 -218h-1041q-150 0 -234.5 79t-84.5 208v1229q0 114 -24 176t-103 102z" />
    <glyph glyph-name="uni0E53" unicode="&#xe53;" horiz-adv-x="2089" 
d="M647 180q-86 0 -133 52t-47 133q0 78 54.5 139.5t165.5 61.5q206 0 206 -255q0 -130 -110.5 -220.5t-217.5 -90.5q-193 0 -313.5 164t-120.5 426q0 158 93.5 307.5t218 226t274.5 76.5q293 0 450 -225q88 213 252 213q457 0 457 -570q0 -186 -122.5 -402t-221.5 -216
q-74 0 -74 78q0 25 69 123q173 247 173 458q0 157 -86 238.5t-156 81.5q-72 0 -132 -79t-60 -245v-176q0 -142 -89.5 -310.5t-172.5 -168.5q-33 0 -53.5 23t-20.5 47q0 40 77 158q87 133 87 198v192q0 212 -84.5 296.5t-276.5 84.5q-205 0 -327.5 -158t-122.5 -304
q0 -180 77 -284t185 -104q63 0 102 31z" />
    <glyph glyph-name="uni0E54" unicode="&#xe54;" horiz-adv-x="2097" 
d="M1536 1737q58 65 131 65q45 0 71.5 -42t26.5 -101q0 -136 -108.5 -276.5t-484.5 -258.5q-11 -4 -264.5 -102t-344.5 -163t-142.5 -161.5t-51.5 -201.5q0 -140 118 -240t361 -100q166 0 307 82q-246 96 -246 348q0 110 90 218.5t242 108.5q275 0 275 -232
q0 -189 -184 -189q-67 0 -128 39t-61 100q0 79 18 123q-80 -26 -80 -168q0 -84 118.5 -208.5t372.5 -164.5q81 -13 120 -29q26 -6 126 -52q25 -16 25 -34q0 -23 -66.5 -58.5t-97.5 -35.5q-26 0 -61 25q-107 61 -406 61q-105 0 -280 -42q-201 -48 -273 -48q-266 0 -399 151
t-133 320q0 193 156 383t680 344q383 113 486 189.5t103 232.5q0 55 -16 117z" />
    <glyph glyph-name="uni0E55" unicode="&#xe55;" horiz-adv-x="2163" 
d="M1319 246q-118 50 -182 160.5t-64 220.5q0 159 115.5 245t232.5 86q295 0 295 -262q0 -73 -42.5 -130.5t-121.5 -57.5q-209 0 -209 139q0 94 20 130q-101 -33 -101 -159q0 -116 139.5 -235.5t281.5 -189.5q89 -34 108 -47t19 -40q0 -30 -37 -72t-77 -42q-37 0 -86 37
q-79 45 -398 45q-105 0 -281 -31q-245 -43 -280 -43q-265 0 -398.5 149t-133.5 322q0 195 129.5 317t517.5 289q43 18 131 58q-156 77 -156 270q0 126 82.5 206.5t229.5 80.5q99 0 184.5 -73t85.5 -219q0 -74 -25 -138q114 4 249.5 112.5t135.5 250.5q0 52 -16 112
q66 73 143 73q99 0 99 -109q0 -98 -61.5 -218.5t-161 -212.5t-167 -114t-338.5 -78q-186 -39 -507.5 -215.5t-321.5 -375.5q0 -60 10 -105t63 -111t132 -99t184 -33q49 0 290 34t288 73zM1155 1401q0 135 -119 135q-107 0 -107 -123q0 -130 130 -130q96 0 96 118z" />
    <glyph glyph-name="uni0E56" unicode="&#xe56;" horiz-adv-x="1749" 
d="M557 348q33 -90 129 -153.5t207 -63.5q174 0 281.5 132.5t107.5 302.5q0 167 -98.5 312.5t-261.5 145.5q-127 0 -363 -101q-138 -59 -194 -59q-62 0 -62 33q0 35 38 82q46 58 63.5 103t17.5 151q0 124 -31.5 197t-137.5 179q-126 126 -126 169q0 22 27.5 56t70.5 34
q67 0 136.5 -67t143 -202.5t73.5 -300.5q0 -126 -29 -217q151 86 303 86q269 0 452 -168t183 -412q0 -217 -156.5 -404t-425.5 -187q-235 0 -402.5 144t-167.5 306q0 97 59 184t164 87q88 0 146 -53.5t58 -136.5q0 -179 -205 -179z" />
    <glyph glyph-name="uni0E57" unicode="&#xe57;" horiz-adv-x="2195" 
d="M1384 -8l-147 123q205 158 205 475q0 373 -230 373q-106 0 -184 -104t-78 -204q-3 106 -116.5 207t-223.5 101q-144 0 -225 -131.5t-81 -318.5q0 -311 339 -361q-53 46 -53 135q0 91 57 150t146 59q84 0 135 -63t51 -147q0 -131 -95 -208.5t-226 -77.5q-184 0 -359.5 167
t-175.5 443q0 245 165 413.5t351 168.5q216 0 307 -266q78 266 332 266q154 0 243 -175.5t89 -336.5q0 -278 -90 -451q130 110 208.5 287t78.5 362q0 524 -492 740l4 266q277 -82 458 -321.5t181 -554.5q0 -669 -574 -1016z" />
    <glyph glyph-name="uni0E58" unicode="&#xe58;" horiz-adv-x="2056" 
d="M489 212q-23 59 -23 148q0 139 191 139q98 0 264 -140q262 -220 398 -220q83 0 119 70q-73 0 -143.5 54.5t-70.5 144.5q0 85 58 141.5t143 56.5q222 0 222 -295q0 -149 -103 -230t-231 -81q-135 0 -350 123l-190 114q-44 25 -81 25q-106 0 -106 -110q0 -92 41 -152
q-233 26 -364.5 197t-131.5 368q0 246 162.5 401.5t390.5 155.5q123 0 313 -63q180 -60 269 -60q196 0 266 137.5t70 305.5v139q0 143 -33 254q169 -6 213.5 -79.5t44.5 -203.5q0 -261 -130 -511t-313 -250q-134 0 -320 52q-207 58 -298 58q-463 0 -463 -360
q0 -196 186 -329z" />
    <glyph glyph-name="uni0E59" unicode="&#xe59;" horiz-adv-x="1671" 
d="M1282 1159q-18 -226 -66 -226l-167 21q-379 0 -556.5 -102t-177.5 -303q0 -154 121.5 -290t304.5 -136q107 0 208.5 71t135.5 203q-43 -17 -71 -17q-95 0 -151 49.5t-56 131.5q0 98 67.5 148.5t156.5 50.5q216 0 216 -304q0 -228 -154.5 -342t-359.5 -114
q-256 0 -429 160.5t-173 420.5q0 316 361 423q-222 58 -222 315q0 118 108.5 194t256.5 76q49 0 208 -25q160 -24 201 -24q197 0 197 201q0 24 -8 151q27 9 41 9q160 0 160 -76q0 -158 -73.5 -291t-238.5 -133q-74 0 -225 6t-205 6q-246 0 -246 -151q0 -181 472 -181
q193 0 364 78z" />
    <glyph glyph-name="uni0E5A" unicode="&#xe5a;" horiz-adv-x="1929" 
d="M1311 0h-226v1352q0 78 -53 78q-41 0 -84 -143q-167 -554 -575 -554q-123 0 -209 90.5t-86 225.5q0 114 73 216.5t214 102.5q176 0 176 -74v-184q-54 111 -185 111q-137 0 -137 -193q0 -78 67.5 -123t155.5 -45q80 0 156 64.5t125 152t121 334.5q17 78 47 152.5t108 74.5
h312v-1638zM1724 0h-229v1626h229v-1626z" />
    <glyph glyph-name="uni0E5B" unicode="&#xe5b;" horiz-adv-x="3342" 
d="M3240 836q-36 -270 -149 -413.5t-281 -143.5q-208 0 -389 327q-188 -282 -242 -282q-58 0 -148 154l-77 132q-197 -278 -242 -278q-53 0 -188 233q-227 -549 -684 -549q-289 0 -486.5 183t-197.5 551q0 319 181 536t486 217q222 0 441 -136l-35 -170q-198 134 -406 134
q-216 0 -351.5 -161t-135.5 -445q0 -247 135.5 -394t364.5 -147q92 0 171.5 27.5t146 82t104.5 112.5t135 264q74 157 86 157q2 0 110 -151q109 -152 135 -152q13 0 118 148q112 159 124 159q44 0 152 -221q48 -98 57 -98q188 266 212 288.5t38 22.5q2 0 242 -332
q45 -65 114 -65q108 0 196 108.5t114 301.5h149z" />
    <glyph glyph-name="glyph221" horiz-adv-x="0" 
d="M-233 -1679h-226v282q-37 -17 -94 -17q-221 0 -221 218q0 89 59 165.5t203 76.5q279 0 279 -242v-483zM-426 -1196q0 131 -127 131q-135 0 -135 -135q0 -123 131 -123t131 127z" />
    <glyph glyph-name="glyph222" horiz-adv-x="0" 
d="M-795 -1356q-36 -12 -79 -12q-236 0 -236 229q0 104 63 169t166 65t170.5 -53.5t67.5 -139.5v-291q0 -102 102 -102q86 0 86 82v475h226v-520q0 -80 -81.5 -124t-175.5 -44q-180 0 -244.5 71t-64.5 195zM-754 -1151q0 135 -118 135q-136 0 -136 -131q0 -127 136 -127
q118 0 118 123z" />
    <glyph glyph-name="glyph223" horiz-adv-x="0" 
d="M-176 -1239q0 -85 -58 -132.5t-123 -47.5q-46 0 -85.5 21t-67 62.5t-27.5 96.5q0 65 47.5 123t132.5 58q51 0 91.5 -24.5t65 -65t24.5 -91.5z" />
    <glyph glyph-name="exclamdown" unicode="&#xa1;" horiz-adv-x="900" 
d="M452 1286q60 0 103 -43t43 -103t-43 -103t-103 -43q-59 0 -102.5 42t-43.5 104q0 60 41.5 103t104.5 43zM426 774h50l116 -1068l8 -104q0 -82 -44.5 -134t-105.5 -52q-62 0 -106 51.5t-44 150.5q0 27 1 40t7 48z" />
    <glyph glyph-name="cent" unicode="&#xa2;" 
d="M1188 460q-60 -246 -216 -384q-117 -108 -290 -108q-113 0 -214 46l-188 -514h-92l204 564q-106 97 -154 202q-68 145 -68 330q0 338 208 516q159 138 360 138q26 0 80 -6l186 506h94l-192 -530q133 -59 184 -116q62 -68 62 -150q0 -53 -32 -82q-15 -15 -38.5 -23.5
t-53.5 -8.5q-71 0 -114 52q-22 29 -34 108q0 36 -22 86l-300 -834q38 -25 69 -42.5t55 -25.5q33 -12 90 -12q81 0 154 33.5t111.5 78t110.5 194.5zM488 330l294 812q-35 16 -78 16q-137 0 -214 -98q-108 -132 -108 -354q0 -52 5 -96.5t17 -85.5q23 -82 84 -194z" />
    <glyph glyph-name="sterling" unicode="&#xa3;" 
d="M954 870h-340v-48t2 -42q0 -127 -20 -230q-15 -108 -62 -242q248 -82 290 -91t72.5 -13t67.5 -4q110 0 178 50q34 28 58.5 67t41.5 95l48 -12q-27 -211 -136 -321.5t-244 -110.5q-89 0 -162 32q-38 18 -101.5 60t-166.5 120q-53 -108 -114 -158q-60 -54 -132 -54
q-67 0 -110 46q-21 22 -32.5 54t-11.5 70q0 89 60 147.5t158 58.5l50 -2l62 -8v29.5t2 30.5v20t2 22q0 101 -28 434h-256v126h256q-18 195 -18 262q0 159 65 293.5t179 205.5t244 71q166 0 250 -90t84 -180q0 -44 -32 -76q-17 -15 -34.5 -23.5t-35.5 -8.5q-49 0 -84 50
q-8 17 -14 41t-6 61q0 75 -44 116q-39 36 -114 36q-104 0 -174 -82q-33 -40 -50.5 -113t-17.5 -175q0 -83 16 -246q4 -46 8.5 -89.5t5.5 -52.5h340v-126zM394 228l-29 14t-28.5 12t-27.5 6t-27 4q-59 0 -94 -32q-32 -35 -32 -84q0 -46 24 -76q28 -28 62 -28q42 0 83.5 40
t68.5 144z" />
    <glyph glyph-name="currency" unicode="&#xa4;" 
d="M1048 1346l188 186l78 -74l-190 -186q136 -175 136 -372q0 -199 -136 -374l190 -192l-78 -72l-188 188q-89 -68 -177 -102t-179 -34q-111 0 -223.5 39.5t-166.5 96.5l-192 -188l-74 72l190 192q-134 152 -134 372q0 207 134 374l-190 186l74 74l192 -186q69 57 174 96
q54 19 104.5 28.5t97.5 9.5t95 -8.5t97 -25.5q97 -31 178 -100zM676 1372q-197 0 -337.5 -139t-140.5 -339q0 -194 140 -334t336 -140q199 0 339.5 140.5t140.5 335.5q0 117 -65 234.5t-176.5 179.5t-236.5 62z" />
    <glyph glyph-name="yen" unicode="&#xa5;" 
d="M788 562h562v-98h-562v-142q0 -77 3 -121.5t10 -62.5t17 -29t30 -25q48 -30 112 -30h54v-54h-680v54h42q93 0 138 34q32 26 44 76q2 15 3 49t1 109v142h-560v98h560v190l-20 46h-540v98h498l-280 654q-48 114 -98 152q-23 19 -53 28.5t-67 9.5v50h584v-50
q-45 0 -77.5 -8.5t-50.5 -21.5q-32 -23 -32 -52q0 -18 24 -78l282 -684l282 664q28 68 28 100q0 26 -28 54q-8 6 -30.5 12t-53.5 10l-36 4v50h456v-50q-78 0 -114 -30q-27 -21 -55 -64.5t-59 -109.5l-282 -640h510v-98h-552l-10 -20v-216z" />
    <glyph glyph-name="brokenbar" unicode="&#xa6;" horiz-adv-x="542" 
d="M322 1878v-980h-110v980h110zM322 396v-980h-110v980h110z" />
    <glyph glyph-name="section" unicode="&#xa7;" 
d="M498 1112q-42 48 -75 94t-53 86q-17 40 -26.5 81t-9.5 81q0 153 109 263.5t265 110.5q144 0 239 -87.5t95 -204.5q0 -53 -34 -90q-25 -28 -70 -28q-41 0 -74 30q-28 31 -28 72q0 10 2.5 29t8 45t5.5 52q0 52 -37 89t-107 37q-94 0 -161 -67t-67 -165q0 -81 34 -140
q60 -89 200 -194q132 -94 223 -179.5t141 -162.5q68 -111 68 -228q0 -59 -17.5 -119.5t-52.5 -120.5q-68 -118 -222 -212q45 -49 77.5 -93.5t48.5 -80.5q36 -75 36 -160q0 -162 -108 -270t-266 -108q-143 0 -237.5 90t-94.5 206q0 48 30 84q34 34 74 34q38 0 70 -32
q28 -31 28 -84q0 -19 -2.5 -38.5t-7 -38.5t-7.5 -37.5t-3 -29.5q0 -39 32 -62q24 -20 56.5 -30t69.5 -10q86 0 160 68q35 33 53.5 71t18.5 79q0 80 -42 146q-62 97 -228 224q-126 92 -208.5 172t-129.5 154q-68 106 -68 228q0 121 72 238q34 59 88.5 110.5t131.5 97.5z
M540 1072q-100 -60 -150 -133t-50 -161q0 -91 50 -170q67 -106 260 -252l86.5 -68.5l73.5 -63.5q202 119 202 290q0 88 -58 178q-28 47 -87 104.5t-151 129.5q-109 85 -176 146z" />
    <glyph glyph-name="dieresis" unicode="&#xa8;" horiz-adv-x="900" 
d="M684 1766q59 0 100 -44q42 -39 42 -100q0 -32 -9.5 -56.5t-32.5 -45.5q-42 -42 -100 -42q-57 0 -100.5 42t-43.5 102q0 58 42 100q21 21 46.5 32.5t55.5 11.5zM218 1766q58 0 101 -41.5t43 -102.5q0 -60 -43.5 -102t-98.5 -42q-60 0 -102 42t-42 102t40 100
q21 21 46.5 32.5t55.5 11.5z" />
    <glyph glyph-name="copyright" unicode="&#xa9;" horiz-adv-x="2054" 
d="M1028 1832q237 0 460 -122q112 -61 200 -147t150 -199q126 -225 126 -468q0 -124 -30.5 -238.5t-93 -227.5t-148 -199t-198.5 -149q-220 -122 -466 -122q-243 0 -466 122q-114 63 -199 147.5t-147 200.5q-124 221 -124 466q0 124 30.5 239.5t93.5 228.5q126 226 352 346
q112 60 227 91t233 31zM1028 1750q-218 0 -420.5 -110t-319.5 -318q-57 -102 -86.5 -209.5t-29.5 -216.5q0 -222 112.5 -425t315.5 -317t428 -114q114 0 217 27t207 87q205 111 317.5 314t112.5 428q0 222 -114 428t-318 316t-422 110zM1490 1498l26 -370h-50
q-48 157 -152 234q-54 39 -114 57.5t-134 18.5q-109 0 -194 -44q-42 -22 -76.5 -51.5t-61.5 -68.5q-39 -57 -66 -150q-13 -46 -19.5 -94t-6.5 -104q0 -279 120 -414q59 -65 138 -98.5t178 -33.5q258 0 412 214l50 -26q-184 -268 -506 -268q-263 0 -437.5 170t-174.5 418
q0 253 186 430q183 180 472 180q63 0 100 -8q39 -6 144 -42q37 -10 48 -10q23 0 37.5 11t28.5 49h52z" />
    <glyph glyph-name="ordfeminine" unicode="&#xaa;" horiz-adv-x="746" 
d="M448 1558q0 139 -34 188q-38 44 -106 44q-61 0 -92 -28q-15 -15 -23.5 -37.5t-8.5 -52.5q0 -61 -22 -86q-17 -26 -54 -26q-30 0 -52 22t-22 56q0 74 74.5 132t235.5 58q120 0 185 -41t83 -85q9 -22 14.5 -60t5.5 -84v-288q0 -72 2.5 -85t13.5 -21q8 -8 18 -8q18 0 76 38
v-62q-96 -69 -130 -86q-30 -12 -66 -12q-34 0 -60 26q-11 13 -20.5 37.5t-17.5 62.5q-80 -59 -154 -90q-34 -14 -68.5 -23t-59.5 -9q-70 0 -122 50.5t-52 113.5q0 57 30 102q37 58 140 124q38 21 105 52q80 37 181 78zM448 1508q-77 -25 -131.5 -54.5t-84.5 -61.5
q-56 -65 -56 -128q0 -43 32 -78q37 -34 86 -34q30 0 66 14q19 6 40.5 17t47.5 27v298z" />
    <glyph glyph-name="guillemotleft" unicode="&#xab;" 
d="M670 -10h-74l-512 622l512 622h74l-322 -622zM1268 -10h-78l-520 622l520 622h78l-322 -622z" />
    <glyph glyph-name="logicalnot" unicode="&#xac;" horiz-adv-x="1524" 
d="M48 1160h1426v-536h-106v428h-1320v108z" />
    <glyph glyph-name="minus" unicode="&#xad;" horiz-adv-x="900" 
d="M110 706h682v-200h-682v200z" />
    <glyph glyph-name="registered" unicode="&#xae;" horiz-adv-x="2054" 
d="M1028 1832q237 0 460 -122q112 -61 200 -147t150 -199q126 -225 126 -468q0 -124 -30.5 -238.5t-93 -227.5t-148 -199t-198.5 -149q-220 -122 -466 -122q-243 0 -466 122q-114 63 -199 147.5t-147 200.5q-124 221 -124 466q0 124 30.5 239.5t93.5 228.5q126 226 352 346
q112 60 227 91t233 31zM1028 1750q-218 0 -420.5 -110t-319.5 -318q-57 -102 -86.5 -209.5t-29.5 -216.5q0 -222 112.5 -425t315.5 -317t428 -114q114 0 217 27t207 87q205 111 317.5 314t112.5 428q0 222 -114 428t-318 316t-422 110zM510 1470h510q189 0 290 -86
q51 -45 76.5 -96t25.5 -114q0 -97 -70 -176q-65 -74 -224 -116l276 -394q27 -36 47 -58q24 -26 43 -38q15 -9 31 -14.5t39 -5.5v-44h-244l-388 536h-100v-408q9 -43 38 -63.5t118 -20.5v-44h-484v44q65 0 90 14q24 18 38 46q10 20 10 122v690q0 92 -4 116q-5 17 -12.5 26.5
t-22 18.5t-34 14t-49.5 5v46zM822 920q153 0 226 29.5t111.5 85t38.5 125.5q0 109 -74.5 180.5t-189.5 71.5q-52 0 -112 -20v-472z" />
    <glyph glyph-name="macron" unicode="&#xaf;" 
d="M1376 1930h-1398v110h1398v-110z" />
    <glyph glyph-name="degree" unicode="&#xb0;" horiz-adv-x="1082" 
d="M534 1830q171 0 289.5 -118.5t118.5 -287.5q0 -165 -119 -285.5t-289 -120.5q-165 0 -284.5 118t-119.5 288q0 167 118 286.5t286 119.5zM534 1718q-63 0 -113.5 -20t-94 -64t-65 -96t-21.5 -114q0 -119 86 -206.5t208 -87.5t208 86q44 44 66 95t22 113
q0 121 -86.5 207.5t-209.5 86.5z" />
    <glyph glyph-name="plusminus" unicode="&#xb1;" horiz-adv-x="1484" 
d="M30 186v108h658v550h-658v110h658v656h106v-656h660v-110h-660v-550h660v-108h-1424z" />
    <glyph glyph-name="twosuperior" unicode="&#xb2;" horiz-adv-x="810" 
d="M760 1078l-82 -202h-652v38q322 253 434 414q66 101 66 188q0 41 -13.5 73.5t-42.5 62.5q-54 54 -138 54q-76 0 -130.5 -38t-87.5 -116h-58q9 66 33 115t69 87q83 74 216 74q138 0 228 -78q44 -38 66 -80t22 -92q0 -89 -62 -186q-100 -155 -390 -388h246q118 0 150 16
q21 8 36.5 21.5t29.5 36.5h60z" />
    <glyph glyph-name="threesuperior" unicode="&#xb3;" horiz-adv-x="810" 
d="M72 1622q24 49 50.5 84t57.5 60q84 62 196 62q121 0 191.5 -61.5t70.5 -132.5q0 -89 -138 -206q47 -17 82 -41t60 -57q48 -63 48 -142q0 -138 -113.5 -235t-324.5 -97q-106 0 -160 32q-31 20 -34 52q0 23 22 40q23 20 56 20q32 0 104 -32t124 -32q71 0 124.5 52t53.5 122
q0 57 -36 114q-32 52 -88 76q-47 16 -78.5 23t-63.5 7h-40v36q102 0 171 63t69 141q0 64 -42 106q-24 21 -52 31.5t-66 10.5q-111 0 -194 -116z" />
    <glyph glyph-name="acute" unicode="&#xb4;" horiz-adv-x="900" 
d="M746 1834l-390 -454h-44l138 454h296z" />
    <glyph glyph-name="mu" unicode="&#xb5;" horiz-adv-x="1558" 
d="M258 1210h218v-704q0 -190 24 -262q15 -51 62 -86q22 -15 48 -23.5t52 -8.5q154 0 312 176v908h218v-864q0 -70 2 -111t9.5 -67t30.5 -46q22 -16 48 -16q33 0 58 28q33 42 48 136h56q0 -77 -21.5 -134.5t-60.5 -99.5q-72 -72 -180 -72q-102 0 -158 76q-38 52 -50 174
q-113 -134 -211.5 -192t-202.5 -58q-70 0 -122 26q-19 11 -38 31q-22 23 -44 55v-28v-22q-2 -9 -2 -12q0 -106 44 -314q18 -81 18 -138q0 -63 -37 -104.5t-87 -41.5q-47 0 -81.5 39t-34.5 105q0 34 9 85t31 133q26 112 28 138q16 144 16 236l-2 98v960z" />
    <glyph glyph-name="paragraph" unicode="&#xb6;" horiz-adv-x="1226" 
d="M1054 1718v-2302h-96v2302h-246v-2302h-96v1378q-123 0 -215.5 17t-162.5 49q-124 54 -190 171.5t-66 264.5q0 145 56 236q38 65 87.5 111.5t116.5 80.5q126 66 334 66h654v-72h-176z" />
    <glyph glyph-name="periodcentered" unicode="&#xb7;" horiz-adv-x="676" 
d="M338 1042q63 0 104.5 -43t41.5 -103q0 -59 -43 -103.5t-103 -44.5q-59 0 -104 42q-42 45 -42 106q0 31 9.5 55t32.5 47q41 44 104 44z" />
    <glyph glyph-name="periodcentered" unicode="&#x2219;" horiz-adv-x="676" 
d="M338 1042q63 0 104.5 -43t41.5 -103q0 -59 -43 -103.5t-103 -44.5q-59 0 -104 42q-42 45 -42 106q0 31 9.5 55t32.5 47q41 44 104 44z" />
    <glyph glyph-name="cedilla" unicode="&#xb8;" horiz-adv-x="900" 
d="M476 22h80l-66 -106q81 -17 122.5 -69.5t41.5 -122.5q0 -94 -79.5 -166t-204.5 -72q-39 0 -69 2l-55 6v58q15 -3 32 -4t32 -2q67 0 113.5 45t46.5 101q0 38 -30 68q-31 28 -76 28l-34 -2z" />
    <glyph glyph-name="onesuperior" unicode="&#xb9;" horiz-adv-x="810" 
d="M180 1712l270 116h46v-782q0 -43 2 -63t6 -35q6 -13 22 -18q18 -12 104 -12v-42h-430v42q79 0 101 8.5t27 23.5q8 16 8 96v494q0 95 -8 124q-3 20 -14 28q-6 7 -24 10q-29 0 -90 -26z" />
    <glyph glyph-name="ordmasculine" unicode="&#xba;" horiz-adv-x="838" 
d="M428 1828q162 0 270 -112.5t108 -275.5t-116.5 -282.5t-279.5 -119.5q-153 0 -264 108q-53 54 -80.5 122.5t-27.5 151.5q0 180 108 294q57 57 126 85.5t156 28.5zM390 1770q-65 0 -115.5 -59.5t-50.5 -188.5q0 -212 92 -340q52 -76 134 -76q78 0 126 58.5t48 185.5
q0 104 -23 188t-71 150q-58 82 -140 82z" />
    <glyph glyph-name="guillemotright" unicode="&#xbb;" 
d="M682 1234h74l512 -624l-512 -620h-74l322 620zM84 1234h78l520 -624l-520 -620h-78l322 620z" />
    <glyph glyph-name="onequarter" unicode="&#xbc;" horiz-adv-x="2028" 
d="M176 1712l272 116h46v-782q0 -79 7 -94.5t21 -21.5q21 -12 106 -12v-42h-430v42q79 0 106 10q14 6 21 20t7 98v494v22v18q0 58 -6 84q-3 20 -14 28q-7 7 -26 10q-27 0 -88 -26zM1706 1828l-1234 -1900h-118l1234 1900h118zM1982 296v-108h-144v-240h-154v240h-452v98
l496 614h110v-604h144zM1684 296v416l-342 -416h342z" />
    <glyph glyph-name="onehalf" unicode="&#xbd;" horiz-adv-x="2028" 
d="M176 1712l272 116h46v-782q0 -79 7 -94.5t21 -21.5q21 -12 106 -12v-42h-430v42q79 0 106 10q14 6 21 20t7 98v494v22v18q0 58 -6 84q-3 20 -14 28q-7 7 -26 10q-27 0 -88 -26zM1674 1828l-1234 -1900h-118l1234 1900h118zM1972 150l-80 -202h-652v38q324 255 432 414
q66 96 66 188q0 79 -54 134.5t-138 55.5q-76 0 -132 -38q-28 -19 -48.5 -47t-37.5 -69h-60q18 124 103 200t217 76q138 0 227 -78.5t89 -171.5q0 -85 -64 -186q-100 -155 -390 -388h248q116 0 151 14t63 60h60z" />
    <glyph glyph-name="threequarters" unicode="&#xbe;" horiz-adv-x="2028" 
d="M1686 1828l-1230 -1900h-118l1234 1900h114zM70 1622q45 93 106 144q43 31 92 46.5t106 15.5q121 0 192 -62q68 -59 68 -132q0 -89 -138 -206q95 -33 143.5 -98.5t48.5 -141.5q0 -135 -113.5 -233.5t-324.5 -98.5q-57 0 -95.5 8t-64.5 24q-34 22 -34 52q0 23 20 40
q12 9 27 14.5t31 5.5q29 0 106 -32q67 -32 120 -32q73 0 126.5 52t53.5 122q0 94 -73.5 157t-232.5 63v36q102 0 171 63t69 141q0 65 -44 106q-22 21 -50 31.5t-66 10.5q-111 0 -194 -116zM1982 296v-108h-144v-240h-152v240h-454v98l496 614h110v-604h144zM1686 296v416
l-344 -416h344z" />
    <glyph glyph-name="questiondown" unicode="&#xbf;" horiz-adv-x="1200" 
d="M596 1288q57 0 104 -44q21 -21 32.5 -47t11.5 -57q0 -57 -43 -101.5t-105 -44.5q-59 0 -104 42q-42 45 -42 104t42 104q47 44 104 44zM582 826h52q0 -81 -8.5 -142.5t-25.5 -117.5q-12 -50 -44.5 -128.5t-89.5 -195.5q-108 -231 -108 -382q0 -175 87 -269.5t225 -94.5
q60 0 103 12.5t77 41.5q66 54 66 118q0 38 -41 111t-41 115q0 44 32 76q33 30 76 30q52 0 100 -54q46 -58 46 -146q0 -153 -129 -268.5t-351 -115.5t-356 123.5t-134 294.5q0 111 38 202q28 66 75.5 136t122.5 156q69 79 115 144q43 60 65 107t35 111t13 136z" />
    <glyph glyph-name="Agrave" unicode="&#xc0;" horiz-adv-x="1952" 
d="M1922 0h-706v49q182 9 182 109q0 58 -53 184l-108 257h-693l-122 -282q-44 -102 -44 -156q0 -97 207 -112v-49h-564v49q102 18 151.5 55.5t142.5 253.5l630 1473h46l623 -1489q65 -156 125 -220.5t183 -72.5v-49zM1200 697l-304 723l-311 -723h615zM985 1919h-46
l-388 456h294z" />
    <glyph glyph-name="Aacute" unicode="&#xc1;" horiz-adv-x="1952" 
d="M1922 0h-706v49q182 9 182 109q0 58 -53 184l-108 257h-693l-122 -282q-44 -102 -44 -156q0 -97 207 -112v-49h-564v49q102 18 151.5 55.5t142.5 253.5l630 1473h46l623 -1489q65 -156 125 -220.5t183 -72.5v-49zM1200 697l-304 723l-311 -723h615zM1296 2374l-390 -454
h-44l138 454h296z" />
    <glyph glyph-name="Acircumflex" unicode="&#xc2;" horiz-adv-x="1952" 
d="M1922 0h-706v49q182 9 182 109q0 58 -53 184l-108 257h-693l-122 -282q-44 -102 -44 -156q0 -97 207 -112v-49h-564v49q102 18 151.5 55.5t142.5 253.5l630 1473h46l623 -1489q65 -156 125 -220.5t183 -72.5v-49zM1200 697l-304 723l-311 -723h615zM828 2348h244
l250 -436h-40l-360 280l-304 -280h-38z" />
    <glyph glyph-name="Atilde" unicode="&#xc3;" horiz-adv-x="1952" 
d="M1922 0h-706v49q182 9 182 109q0 58 -53 184l-108 257h-693l-122 -282q-44 -102 -44 -156q0 -97 207 -112v-49h-564v49q102 18 151.5 55.5t142.5 253.5l630 1473h46l623 -1489q65 -156 125 -220.5t183 -72.5v-49zM1200 697l-304 723l-311 -723h615zM572 1968h-42
q0 89 19 155t55 107q71 80 174 80q53 0 104 -19t160.5 -92t163.5 -73q41 0 73 35t53 149h40q0 -123 -33 -194.5t-95 -113.5q-31 -20 -60.5 -30t-61.5 -10q-101 0 -258 106l-70 45q-28 17 -44 25q-27 12 -56 12q-53 0 -86 -48q-7 -13 -15.5 -45t-20.5 -89z" />
    <glyph glyph-name="Adieresis" unicode="&#xc4;" horiz-adv-x="1952" 
d="M1922 0h-706v49q182 9 182 109q0 58 -53 184l-108 257h-693l-122 -282q-44 -102 -44 -156q0 -97 207 -112v-49h-564v49q102 18 151.5 55.5t142.5 253.5l630 1473h46l623 -1489q65 -156 125 -220.5t183 -72.5v-49zM1200 697l-304 723l-311 -723h615zM1174 2246
q59 0 100 -44q42 -39 42 -100q0 -32 -9.5 -56.5t-32.5 -45.5q-42 -42 -100 -42q-57 0 -100.5 42t-43.5 102q0 58 42 100q21 21 46.5 32.5t55.5 11.5zM708 2246q58 0 101 -41.5t43 -102.5q0 -60 -43.5 -102t-98.5 -42q-60 0 -102 42t-42 102t40 100q21 21 46.5 32.5
t55.5 11.5z" />
    <glyph glyph-name="Aring" unicode="&#xc5;" horiz-adv-x="1952" 
d="M1922 0h-706v49q182 9 182 109q0 58 -53 184l-108 257h-693l-122 -282q-44 -102 -44 -156q0 -97 207 -112v-49h-564v49q102 18 151.5 55.5t142.5 253.5l630 1473h46l623 -1489q65 -156 125 -220.5t183 -72.5v-49zM1200 697l-304 723l-311 -723h615zM950 2420
q106 0 180 -74t74 -178q0 -106 -74 -180q-39 -37 -82.5 -55.5t-97.5 -18.5q-104 0 -178 74q-37 39 -55.5 82.5t-18.5 97.5q0 103 72 178q39 37 82.5 55.5t97.5 18.5zM950 2328q-68 0 -114 -46t-46 -114q0 -65 45.5 -113.5t114.5 -48.5q66 0 114 48t48 114t-47 113t-115 47z
" />
    <glyph glyph-name="AE" unicode="&#xc6;" horiz-adv-x="2404" 
d="M1356 1692v-708h340q148 0 212 58q34 29 54 79.5t20 122.5h48v-620h-48q-18 130 -44.5 176t-89.5 74q-28 14 -152 14h-340v-592q0 -64 2 -98.5t8 -45.5q6 -20 38 -38q12 -8 39 -12t65 -4h240q141 0 221.5 24t150.5 92q95 89 158 236h50l-142 -450h-1344v48h68
q106 0 160 66q32 41 32 202v378h-522l-164 -308q-44 -85 -68 -144t-24 -84q0 -39 40 -70q36 -28 166 -40v-48h-562v48q60 0 100 26q43 25 91 86.5t123 201.5l544 1018q102 186 102 254q0 42 -36 66q-22 18 -72 30t-120 12v48h1466l20 -394h-44q-19 141 -66 208
q-37 53 -104 76q-36 12 -180 12h-436zM1102 1692l-470 -902h470v902z" />
    <glyph glyph-name="Ccedilla" unicode="&#xc7;" horiz-adv-x="1803" 
d="M1709 420q-259 -461 -740 -461q-400 0 -635.5 264t-235.5 644q0 412 261.5 688t649.5 276q195 0 382 -95q57 -29 80 -29q82 0 110 124h47l41 -609h-41q-154 514 -598 514q-327 0 -479 -246t-152 -625q0 -396 187.5 -593t481.5 -197q198 0 329.5 88.5t271.5 282.5zM923 22
h80l-66 -106q81 -17 122.5 -69.5t41.5 -122.5q0 -94 -79.5 -166t-204.5 -72q-39 0 -69 2l-55 6v58q15 -3 32 -4t32 -2q67 0 113.5 45t46.5 101q0 38 -30 68q-31 28 -76 28l-34 -2z" />
    <glyph glyph-name="Egrave" unicode="&#xc8;" horiz-adv-x="1651" 
d="M1589 449l-154 -449h-1380v49h64q94 0 143.5 48t49.5 218v1163q0 182 -48 222.5t-145 40.5h-64v49h1380l20 -392h-52q-35 182 -100.5 238t-246.5 56h-491v-707h393q138 0 205.5 45t76.5 215h48v-623h-48q-17 181 -90.5 223.5t-191.5 42.5h-393v-590q0 -127 26 -163.5
t122 -36.5h303q188 0 294.5 60t226.5 291h52zM938 1919h-46l-388 456h294z" />
    <glyph glyph-name="Eacute" unicode="&#xc9;" horiz-adv-x="1651" 
d="M1589 449l-154 -449h-1380v49h64q94 0 143.5 48t49.5 218v1163q0 182 -48 222.5t-145 40.5h-64v49h1380l20 -392h-52q-35 182 -100.5 238t-246.5 56h-491v-707h393q138 0 205.5 45t76.5 215h48v-623h-48q-17 181 -90.5 223.5t-191.5 42.5h-393v-590q0 -127 26 -163.5
t122 -36.5h303q188 0 294.5 60t226.5 291h52zM1174 2374l-390 -454h-44l138 454h296z" />
    <glyph glyph-name="Ecircumflex" unicode="&#xca;" horiz-adv-x="1651" 
d="M1589 449l-154 -449h-1380v49h64q94 0 143.5 48t49.5 218v1163q0 182 -48 222.5t-145 40.5h-64v49h1380l20 -392h-52q-35 182 -100.5 238t-246.5 56h-491v-707h393q138 0 205.5 45t76.5 215h48v-623h-48q-17 181 -90.5 223.5t-191.5 42.5h-393v-590q0 -127 26 -163.5
t122 -36.5h303q188 0 294.5 60t226.5 291h52zM716 2368h244l250 -436h-40l-360 280l-304 -280h-38z" />
    <glyph glyph-name="Edieresis" unicode="&#xcb;" horiz-adv-x="1651" 
d="M1589 449l-154 -449h-1380v49h64q94 0 143.5 48t49.5 218v1163q0 182 -48 222.5t-145 40.5h-64v49h1380l20 -392h-52q-35 182 -100.5 238t-246.5 56h-491v-707h393q138 0 205.5 45t76.5 215h48v-623h-48q-17 181 -90.5 223.5t-191.5 42.5h-393v-590q0 -127 26 -163.5
t122 -36.5h303q188 0 294.5 60t226.5 291h52zM1064 2216q59 0 100 -44q42 -39 42 -100q0 -32 -9.5 -56.5t-32.5 -45.5q-42 -42 -100 -42q-57 0 -100.5 42t-43.5 102q0 58 42 100q21 21 46.5 32.5t55.5 11.5zM598 2216q58 0 101 -41.5t43 -102.5q0 -60 -43.5 -102t-98.5 -42
q-60 0 -102 42t-42 102t40 100q21 21 46.5 32.5t55.5 11.5z" />
    <glyph glyph-name="Igrave" unicode="&#xcc;" horiz-adv-x="900" 
d="M834 0h-767v49h64q123 0 157.5 58t34.5 210v1156q0 169 -44 218.5t-148 49.5h-64v49h767v-49h-64q-79 0 -136 -42t-57 -226v-1156q0 -158 23 -192.5t71.5 -55t98.5 -20.5h64v-49zM510 1919h-46l-388 456h294z" />
    <glyph glyph-name="Iacute" unicode="&#xcd;" horiz-adv-x="900" 
d="M834 0h-767v49h64q123 0 157.5 58t34.5 210v1156q0 169 -44 218.5t-148 49.5h-64v49h767v-49h-64q-79 0 -136 -42t-57 -226v-1156q0 -158 23 -192.5t71.5 -55t98.5 -20.5h64v-49zM796 2374l-390 -454h-44l138 454h296z" />
    <glyph glyph-name="Icircumflex" unicode="&#xce;" horiz-adv-x="900" 
d="M834 0h-767v49h64q123 0 157.5 58t34.5 210v1156q0 169 -44 218.5t-148 49.5h-64v49h767v-49h-64q-79 0 -136 -42t-57 -226v-1156q0 -158 23 -192.5t71.5 -55t98.5 -20.5h64v-49zM328 2368h244l250 -436h-40l-360 280l-304 -280h-38z" />
    <glyph glyph-name="Idieresis" unicode="&#xcf;" horiz-adv-x="900" 
d="M834 0h-767v49h64q123 0 157.5 58t34.5 210v1156q0 169 -44 218.5t-148 49.5h-64v49h767v-49h-64q-79 0 -136 -42t-57 -226v-1156q0 -158 23 -192.5t71.5 -55t98.5 -20.5h64v-49zM683 2216q59 0 100 -44q42 -39 42 -100q0 -32 -9.5 -56.5t-32.5 -45.5q-42 -42 -100 -42
q-57 0 -100.5 42t-43.5 102q0 58 42 100q21 21 46.5 32.5t55.5 11.5zM217 2216q58 0 101 -41.5t43 -102.5q0 -60 -43.5 -102t-98.5 -42q-60 0 -102 42t-42 102t40 100q21 21 46.5 32.5t55.5 11.5z" />
    <glyph glyph-name="Eth" unicode="&#xd0;" horiz-adv-x="1952" 
d="M46 0v48h68q112 0 162 74q28 44 28 194v580h-258v96h258v482q0 166 -38 210q-52 58 -152 58h-68v48h728q413 0 614 -93.5t330.5 -302t129.5 -488.5q0 -379 -242.5 -642.5t-761.5 -263.5h-798zM558 132q168 -36 282 -36q152 0 279 53.5t227 160.5q202 211 202 584
q0 370 -200.5 584t-517.5 214q-123 0 -272 -38v-662h520v-96h-520v-764z" />
    <glyph glyph-name="Ntilde" unicode="&#xd1;" horiz-adv-x="1952" 
d="M1914 1741h-63q-115 0 -152.5 -56t-37.5 -205v-1509h-48l-1180 1441v-1102q0 -176 48.5 -218.5t141.5 -42.5h63v-49h-623v49h62q83 0 137.5 42t54.5 219v1245q-90 105 -169.5 145.5t-183.5 40.5v49h486l1094 -1343v1033q0 175 -49.5 218t-141.5 43h-62v49h623v-49z
M612 1968h-42q0 89 19 155t55 107q71 80 174 80q53 0 104 -19t160.5 -92t163.5 -73q41 0 73 35t53 149h40q0 -123 -33 -194.5t-95 -113.5q-31 -20 -60.5 -30t-61.5 -10q-101 0 -258 106l-70 45q-28 17 -44 25q-27 12 -56 12q-53 0 -86 -48q-7 -13 -15.5 -45t-20.5 -89z" />
    <glyph glyph-name="Ograve" unicode="&#xd2;" horiz-adv-x="1952" 
d="M1848 906q0 -399 -250 -673t-630 -274q-258 0 -452 121t-307.5 331.5t-113.5 490.5q0 404 260.5 666.5t633.5 262.5q246 0 436 -122t306.5 -330.5t116.5 -472.5zM1546 870q0 865 -582 865q-160 0 -285.5 -84.5t-203.5 -271.5t-78 -472q0 -390 149.5 -622t418.5 -232
q284 0 432.5 218.5t148.5 598.5zM1050 1919h-46l-388 456h294z" />
    <glyph glyph-name="Oacute" unicode="&#xd3;" horiz-adv-x="1952" 
d="M1848 906q0 -399 -250 -673t-630 -274q-258 0 -452 121t-307.5 331.5t-113.5 490.5q0 404 260.5 666.5t633.5 262.5q246 0 436 -122t306.5 -330.5t116.5 -472.5zM1546 870q0 865 -582 865q-160 0 -285.5 -84.5t-203.5 -271.5t-78 -472q0 -390 149.5 -622t418.5 -232
q284 0 432.5 218.5t148.5 598.5zM1286 2374l-390 -454h-44l138 454h296z" />
    <glyph glyph-name="Ocircumflex" unicode="&#xd4;" horiz-adv-x="1952" 
d="M1848 906q0 -399 -250 -673t-630 -274q-258 0 -452 121t-307.5 331.5t-113.5 490.5q0 404 260.5 666.5t633.5 262.5q246 0 436 -122t306.5 -330.5t116.5 -472.5zM1546 870q0 865 -582 865q-160 0 -285.5 -84.5t-203.5 -271.5t-78 -472q0 -390 149.5 -622t418.5 -232
q284 0 432.5 218.5t148.5 598.5zM848 2368h244l250 -436h-40l-360 280l-304 -280h-38z" />
    <glyph glyph-name="Otilde" unicode="&#xd5;" horiz-adv-x="1952" 
d="M1848 906q0 -399 -250 -673t-630 -274q-258 0 -452 121t-307.5 331.5t-113.5 490.5q0 404 260.5 666.5t633.5 262.5q246 0 436 -122t306.5 -330.5t116.5 -472.5zM1546 870q0 865 -582 865q-160 0 -285.5 -84.5t-203.5 -271.5t-78 -472q0 -390 149.5 -622t418.5 -232
q284 0 432.5 218.5t148.5 598.5zM592 1968h-42q0 89 19 155t55 107q71 80 174 80q53 0 104 -19t160.5 -92t163.5 -73q41 0 73 35t53 149h40q0 -123 -33 -194.5t-95 -113.5q-31 -20 -60.5 -30t-61.5 -10q-101 0 -258 106l-70 45q-28 17 -44 25q-27 12 -56 12q-53 0 -86 -48
q-7 -13 -15.5 -45t-20.5 -89z" />
    <glyph glyph-name="Odieresis" unicode="&#xd6;" horiz-adv-x="1952" 
d="M1848 906q0 -399 -250 -673t-630 -274q-258 0 -452 121t-307.5 331.5t-113.5 490.5q0 404 260.5 666.5t633.5 262.5q246 0 436 -122t306.5 -330.5t116.5 -472.5zM1546 870q0 865 -582 865q-160 0 -285.5 -84.5t-203.5 -271.5t-78 -472q0 -390 149.5 -622t418.5 -232
q284 0 432.5 218.5t148.5 598.5zM1204 2246q59 0 100 -44q42 -39 42 -100q0 -32 -9.5 -56.5t-32.5 -45.5q-42 -42 -100 -42q-57 0 -100.5 42t-43.5 102q0 58 42 100q21 21 46.5 32.5t55.5 11.5zM738 2246q58 0 101 -41.5t43 -102.5q0 -60 -43.5 -102t-98.5 -42
q-60 0 -102 42t-42 102t40 100q21 21 46.5 32.5t55.5 11.5z" />
    <glyph glyph-name="multiply" unicode="&#xd7;" horiz-adv-x="1524" 
d="M218 434l466 466l-464 464l76 76l464 -464l466 464l74 -74l-466 -466l468 -466l-76 -78l-466 468l-466 -466z" />
    <glyph glyph-name="Oslash" unicode="&#xd8;" horiz-adv-x="1952" 
d="M1514 1634l174 214l76 -58l-176 -220q137 -149 200 -302q31 -78 46.5 -168t15.5 -194q0 -449 -322 -732q-250 -214 -546 -214q-70 0 -140 11.5t-146 36t-138.5 58.5t-121.5 82l-170 -210l-78 62l174 216q-266 272 -266 698q0 386 258.5 652t623.5 266q299 0 536 -198z
M1404 1498q-155 240 -432 240q-122 0 -194 -30q-96 -38 -178 -126q-102 -117 -152 -284q-25 -87 -37.5 -180t-12.5 -198q0 -306 98 -538zM1454 1404l-904 -1118q35 -53 73 -93t79 -65q59 -36 124.5 -55t137.5 -19q139 0 226 42q41 18 83 51t81 75.5t72.5 105.5t63.5 142
q54 159 54 396q0 162 -24 300q-17 98 -66 238z" />
    <glyph glyph-name="Ugrave" unicode="&#xd9;" horiz-adv-x="1952" 
d="M1923 1741h-67q-101 0 -145.5 -64t-44.5 -214v-726q0 -229 -44 -395.5t-207.5 -275t-437.5 -108.5q-265 0 -431.5 96.5t-218.5 249t-52 470.5v699q0 137 -36.5 202.5t-156.5 65.5h-67v49h773v-49h-69q-85 0 -138 -47t-53 -221v-780q0 -222 43 -353.5t150 -200t272 -68.5
q158 0 296.5 67.5t198 185t59.5 424.5v725q0 178 -50 223t-140 45h-67v49h633v-49zM1074 1919h-46l-388 456h294z" />
    <glyph glyph-name="Uacute" unicode="&#xda;" horiz-adv-x="1952" 
d="M1923 1741h-67q-101 0 -145.5 -64t-44.5 -214v-726q0 -229 -44 -395.5t-207.5 -275t-437.5 -108.5q-265 0 -431.5 96.5t-218.5 249t-52 470.5v699q0 137 -36.5 202.5t-156.5 65.5h-67v49h773v-49h-69q-85 0 -138 -47t-53 -221v-780q0 -222 43 -353.5t150 -200t272 -68.5
q158 0 296.5 67.5t198 185t59.5 424.5v725q0 178 -50 223t-140 45h-67v49h633v-49zM1306 2374l-390 -454h-44l138 454h296z" />
    <glyph glyph-name="Ucircumflex" unicode="&#xdb;" horiz-adv-x="1952" 
d="M1923 1741h-67q-101 0 -145.5 -64t-44.5 -214v-726q0 -229 -44 -395.5t-207.5 -275t-437.5 -108.5q-265 0 -431.5 96.5t-218.5 249t-52 470.5v699q0 137 -36.5 202.5t-156.5 65.5h-67v49h773v-49h-69q-85 0 -138 -47t-53 -221v-780q0 -222 43 -353.5t150 -200t272 -68.5
q158 0 296.5 67.5t198 185t59.5 424.5v725q0 178 -50 223t-140 45h-67v49h633v-49zM848 2368h244l250 -436h-40l-360 280l-304 -280h-38z" />
    <glyph glyph-name="Udieresis" unicode="&#xdc;" horiz-adv-x="1952" 
d="M1923 1741h-67q-101 0 -145.5 -64t-44.5 -214v-726q0 -229 -44 -395.5t-207.5 -275t-437.5 -108.5q-265 0 -431.5 96.5t-218.5 249t-52 470.5v699q0 137 -36.5 202.5t-156.5 65.5h-67v49h773v-49h-69q-85 0 -138 -47t-53 -221v-780q0 -222 43 -353.5t150 -200t272 -68.5
q158 0 296.5 67.5t198 185t59.5 424.5v725q0 178 -50 223t-140 45h-67v49h633v-49zM1204 2246q59 0 100 -44q42 -39 42 -100q0 -32 -9.5 -56.5t-32.5 -45.5q-42 -42 -100 -42q-57 0 -100.5 42t-43.5 102q0 58 42 100q21 21 46.5 32.5t55.5 11.5zM738 2246q58 0 101 -41.5
t43 -102.5q0 -60 -43.5 -102t-98.5 -42q-60 0 -102 42t-42 102t40 100q21 21 46.5 32.5t55.5 11.5z" />
    <glyph glyph-name="Yacute" unicode="&#xdd;" horiz-adv-x="1952" 
d="M1913 1741h-35q-63 0 -140 -44.5t-213 -257.5l-432 -680v-449q0 -176 50 -218.5t145 -42.5h58v-49h-760v49h63q117 0 154 56t37 205v424l-492 750q-75 114 -107 152t-98 71.5t-118 33.5v49h766v-49h-40q-166 0 -166 -116q0 -49 80 -172l374 -576l351 551q79 124 79 185
q0 128 -181 128v49h625v-49zM1316 2374l-390 -454h-44l138 454h296z" />
    <glyph glyph-name="Thorn" unicode="&#xde;" horiz-adv-x="1504" 
d="M554 1384h98q99 0 170 -4t126 -12q142 -24 238.5 -86t151.5 -160q31 -50 46.5 -106t15.5 -118q0 -102 -38.5 -188t-103.5 -148q-31 -31 -66.5 -55t-79.5 -45q-40 -18 -88.5 -30t-123.5 -24q-48 -6 -254 -6h-92v-82q0 -171 46 -221.5t156 -50.5h54v-48h-762v48h50
q123 0 176 74q26 39 26 194v1146q0 152 -14 185.5t-66 64.5q-26 15 -54.5 22.5t-65.5 7.5h-52v48h762v-48h-52q-31 0 -60 -7t-64 -25q-38 -15 -59 -64.5t-21 -175.5v-86zM554 1280v-784h58q84 0 144.5 8t107.5 28q119 52 175.5 145.5t56.5 216.5q0 98 -40 180.5t-110 131.5
q-35 24 -69.5 39.5t-78.5 24.5q-24 4 -71.5 7t-108.5 3h-64z" />
    <glyph glyph-name="germandbls" unicode="&#xdf;" 
d="M46 0v48q38 0 66 7.5t46 20.5q34 18 48 58q14 34 14 164v978q0 324 124 463t348 139q212 0 338 -121.5t126 -308.5q0 -138 -70 -238q-29 -37 -72.5 -68t-109.5 -58q175 -50 270 -184q90 -129 90 -342q0 -117 -29 -217t-91 -187q-118 -172 -322 -172q-111 0 -182.5 64
t-71.5 150q0 55 28 86q33 30 78 30q51 0 78 -30q30 -30 30 -74q0 -20 -4.5 -38.5t-7 -31t-2.5 -20.5q0 -25 20 -42q10 -9 24 -14.5t30 -5.5q78 0 130 70q68 92 68 286q0 138 -24 246t-73.5 190.5t-119.5 126.5q-75 47 -173 47v76q141 0 212.5 82t71.5 274q0 177 -70 256
q-65 80 -182 80q-107 0 -174.5 -84t-67.5 -338v-1368h-394z" />
    <glyph glyph-name="agrave" unicode="&#xe0;" horiz-adv-x="1200" 
d="M1195 174q-148 -198 -283 -198q-140 0 -142 198q-167 -129 -229.5 -164t-156.5 -35q-143 0 -215.5 95t-72.5 216q0 69 32 141t183.5 167.5t458.5 206.5v48q0 315 -225 315q-77 0 -129.5 -42.5t-52.5 -105.5l3 -76q0 -127 -113 -127q-110 0 -110 128q0 139 133 221.5
t309 82.5q157 0 254 -49t122.5 -124t25.5 -242v-410q0 -164 12 -220.5t52 -56.5q39 0 144 105v-74zM770 260v461q-298 -112 -375 -197t-77 -176q0 -81 50.5 -150.5t137.5 -69.5q100 0 264 132zM692 1379h-46l-388 456h294z" />
    <glyph glyph-name="aacute" unicode="&#xe1;" horiz-adv-x="1200" 
d="M1195 174q-148 -198 -283 -198q-140 0 -142 198q-167 -129 -229.5 -164t-156.5 -35q-143 0 -215.5 95t-72.5 216q0 69 32 141t183.5 167.5t458.5 206.5v48q0 315 -225 315q-77 0 -129.5 -42.5t-52.5 -105.5l3 -76q0 -127 -113 -127q-110 0 -110 128q0 139 133 221.5
t309 82.5q157 0 254 -49t122.5 -124t25.5 -242v-410q0 -164 12 -220.5t52 -56.5q39 0 144 105v-74zM770 260v461q-298 -112 -375 -197t-77 -176q0 -81 50.5 -150.5t137.5 -69.5q100 0 264 132zM863 1834l-390 -454h-44l138 454h296z" />
    <glyph glyph-name="acircumflex" unicode="&#xe2;" horiz-adv-x="1200" 
d="M1195 174q-148 -198 -283 -198q-140 0 -142 198q-167 -129 -229.5 -164t-156.5 -35q-143 0 -215.5 95t-72.5 216q0 69 32 141t183.5 167.5t458.5 206.5v48q0 315 -225 315q-77 0 -129.5 -42.5t-52.5 -105.5l3 -76q0 -127 -113 -127q-110 0 -110 128q0 139 133 221.5
t309 82.5q157 0 254 -49t122.5 -124t25.5 -242v-410q0 -164 12 -220.5t52 -56.5q39 0 144 105v-74zM770 260v461q-298 -112 -375 -197t-77 -176q0 -81 50.5 -150.5t137.5 -69.5q100 0 264 132zM445 1828h244l250 -436h-40l-360 280l-304 -280h-38z" />
    <glyph glyph-name="atilde" unicode="&#xe3;" horiz-adv-x="1200" 
d="M1195 174q-148 -198 -283 -198q-140 0 -142 198q-167 -129 -229.5 -164t-156.5 -35q-143 0 -215.5 95t-72.5 216q0 69 32 141t183.5 167.5t458.5 206.5v48q0 315 -225 315q-77 0 -129.5 -42.5t-52.5 -105.5l3 -76q0 -127 -113 -127q-110 0 -110 128q0 139 133 221.5
t309 82.5q157 0 254 -49t122.5 -124t25.5 -242v-410q0 -164 12 -220.5t52 -56.5q39 0 144 105v-74zM770 260v461q-298 -112 -375 -197t-77 -176q0 -81 50.5 -150.5t137.5 -69.5q100 0 264 132zM189 1448h-42q0 89 19 155t55 107q71 80 174 80q53 0 104 -19t160.5 -92
t163.5 -73q41 0 73 35t53 149h40q0 -123 -33 -194.5t-95 -113.5q-31 -20 -60.5 -30t-61.5 -10q-101 0 -258 106l-70 45q-28 17 -44 25q-27 12 -56 12q-53 0 -86 -48q-7 -13 -15.5 -45t-20.5 -89z" />
    <glyph glyph-name="adieresis" unicode="&#xe4;" horiz-adv-x="1200" 
d="M1195 174q-148 -198 -283 -198q-140 0 -142 198q-167 -129 -229.5 -164t-156.5 -35q-143 0 -215.5 95t-72.5 216q0 69 32 141t183.5 167.5t458.5 206.5v48q0 315 -225 315q-77 0 -129.5 -42.5t-52.5 -105.5l3 -76q0 -127 -113 -127q-110 0 -110 128q0 139 133 221.5
t309 82.5q157 0 254 -49t122.5 -124t25.5 -242v-410q0 -164 12 -220.5t52 -56.5q39 0 144 105v-74zM770 260v461q-298 -112 -375 -197t-77 -176q0 -81 50.5 -150.5t137.5 -69.5q100 0 264 132zM800 1766q59 0 100 -44q42 -39 42 -100q0 -32 -9.5 -56.5t-32.5 -45.5
q-42 -42 -100 -42q-57 0 -100.5 42t-43.5 102q0 58 42 100q21 21 46.5 32.5t55.5 11.5zM334 1766q58 0 101 -41.5t43 -102.5q0 -60 -43.5 -102t-98.5 -42q-60 0 -102 42t-42 102t40 100q21 21 46.5 32.5t55.5 11.5z" />
    <glyph glyph-name="aring" unicode="&#xe5;" horiz-adv-x="1200" 
d="M1195 174q-148 -198 -283 -198q-140 0 -142 198q-167 -129 -229.5 -164t-156.5 -35q-143 0 -215.5 95t-72.5 216q0 69 32 141t183.5 167.5t458.5 206.5v48q0 315 -225 315q-77 0 -129.5 -42.5t-52.5 -105.5l3 -76q0 -127 -113 -127q-110 0 -110 128q0 139 133 221.5
t309 82.5q157 0 254 -49t122.5 -124t25.5 -242v-410q0 -164 12 -220.5t52 -56.5q39 0 144 105v-74zM770 260v461q-298 -112 -375 -197t-77 -176q0 -81 50.5 -150.5t137.5 -69.5q100 0 264 132zM567 1882q106 0 180 -74t74 -178q0 -106 -74 -180q-39 -37 -82.5 -55.5
t-97.5 -18.5q-104 0 -178 74q-37 39 -55.5 82.5t-18.5 97.5q0 103 72 178q39 37 82.5 55.5t97.5 18.5zM567 1790q-68 0 -114 -46t-46 -114q0 -65 45.5 -113.5t114.5 -48.5q66 0 114 48t48 114t-47 113t-115 47z" />
    <glyph glyph-name="ae" unicode="&#xe6;" horiz-adv-x="1804" 
d="M968 748v-98q0 -264 95.5 -376t242.5 -112q125 0 232 80q63 49 142 210l42 -30q-48 -213 -206 -356q-111 -102 -282 -102q-76 0 -134.5 14.5t-111.5 47.5q-47 28 -146 148l-72 -56l-63 -50q-24 -18 -41 -28q-32 -18 -65 -32t-67 -24q-66 -20 -144 -20q-124 0 -210 86
q-41 44 -62.5 98t-21.5 118q0 116 56 193.5t226 168.5q100 51 191.5 90.5t174.5 69.5v122q0 140 -52.5 200t-141.5 60q-88 0 -137 -43t-49 -95q0 -111 -12 -144t-36 -52q-26 -16 -58 -16q-53 0 -80 30q-40 43 -40 96q0 64 47.5 134t151 118t243.5 48q161 0 248 -48
q40 -21 67.5 -50t42.5 -64q63 78 132 114q93 48 222 48q191 0 310 -128q59 -63 89.5 -156t30.5 -214h-754zM968 834h500q0 164 -69.5 241t-174.5 77q-104 0 -180 -82q-37 -42 -56.5 -100.5t-19.5 -135.5zM806 242q-14 29 -25.5 67.5t-20.5 88.5q-16 99 -16 186v118
q-177 -53 -328 -168q-49 -38 -73.5 -86t-24.5 -108q0 -102 62.5 -169t149.5 -67q53 0 108 26q59 29 168 112z" />
    <glyph glyph-name="ccedilla" unicode="&#xe7;" horiz-adv-x="1200" 
d="M1111 459q-45 -222 -181 -359t-325 -137q-245 0 -379 195.5t-134 444.5q0 270 162 456t415 186q148 0 278 -82.5t130 -208.5q0 -112 -123 -112q-72 0 -103 34t-44 125q-21 155 -181 155q-151 0 -235.5 -124.5t-84.5 -314.5q0 -221 107 -384.5t287 -163.5q249 0 373 309z
M585 22h80l-66 -106q81 -17 122.5 -69.5t41.5 -122.5q0 -94 -79.5 -166t-204.5 -72q-39 0 -69 2l-55 6v58q15 -3 32 -4t32 -2q67 0 113.5 45t46.5 101q0 38 -30 68q-31 28 -76 28l-34 -2z" />
    <glyph glyph-name="egrave" unicode="&#xe8;" horiz-adv-x="1200" 
d="M1123 441q-31 -205 -171.5 -341.5t-323.5 -136.5q-236 0 -382 180t-146 446q0 290 150 473.5t409 183.5q234 0 349 -149t115 -343h-835q0 -246 120.5 -411t320.5 -165q245 0 353 289zM847 830q-17 322 -262 322q-120 0 -202 -90.5t-95 -231.5h559zM727 1379h-46l-388 456
h294z" />
    <glyph glyph-name="eacute" unicode="&#xe9;" horiz-adv-x="1200" 
d="M1123 441q-31 -205 -171.5 -341.5t-323.5 -136.5q-236 0 -382 180t-146 446q0 290 150 473.5t409 183.5q234 0 349 -149t115 -343h-835q0 -246 120.5 -411t320.5 -165q245 0 353 289zM847 830q-17 322 -262 322q-120 0 -202 -90.5t-95 -231.5h559zM976 1834l-390 -454
h-44l138 454h296z" />
    <glyph glyph-name="ecircumflex" unicode="&#xea;" horiz-adv-x="1200" 
d="M1123 441q-31 -205 -171.5 -341.5t-323.5 -136.5q-236 0 -382 180t-146 446q0 290 150 473.5t409 183.5q234 0 349 -149t115 -343h-835q0 -246 120.5 -411t320.5 -165q245 0 353 289zM847 830q-17 322 -262 322q-120 0 -202 -90.5t-95 -231.5h559zM482 1828h244l250 -436
h-40l-360 280l-304 -280h-38z" />
    <glyph glyph-name="edieresis" unicode="&#xeb;" horiz-adv-x="1200" 
d="M1123 441q-31 -205 -171.5 -341.5t-323.5 -136.5q-236 0 -382 180t-146 446q0 290 150 473.5t409 183.5q234 0 349 -149t115 -343h-835q0 -246 120.5 -411t320.5 -165q245 0 353 289zM847 830q-17 322 -262 322q-120 0 -202 -90.5t-95 -231.5h559zM837 1766q59 0 100 -44
q42 -39 42 -100q0 -32 -9.5 -56.5t-32.5 -45.5q-42 -42 -100 -42q-57 0 -100.5 42t-43.5 102q0 58 42 100q21 21 46.5 32.5t55.5 11.5zM371 1766q58 0 101 -41.5t43 -102.5q0 -60 -43.5 -102t-98.5 -42q-60 0 -102 42t-42 102t40 100q21 21 46.5 32.5t55.5 11.5z" />
    <glyph glyph-name="igrave" unicode="&#xec;" horiz-adv-x="751" 
d="M499 1244v-970q0 -113 18 -152q14 -35 48 -56q33 -18 120 -18v-48h-588v48q91 0 118 16q31 19 48.5 58t17.5 152v466q0 194 -12 254q-6 39 -28 58q-13 9 -24.5 13.5t-29.5 4.5q-19 0 -38 -4.5t-52 -15.5l-18 48l364 146h56zM469 1379h-46l-388 456h294z" />
    <glyph glyph-name="iacute" unicode="&#xed;" horiz-adv-x="751" 
d="M499 1244v-970q0 -113 18 -152q14 -35 48 -56q33 -18 120 -18v-48h-588v48q91 0 118 16q31 19 48.5 58t17.5 152v466q0 194 -12 254q-6 39 -28 58q-13 9 -24.5 13.5t-29.5 4.5q-19 0 -38 -4.5t-52 -15.5l-18 48l364 146h56zM679 1834l-390 -454h-44l138 454h296z" />
    <glyph glyph-name="icircumflex" unicode="&#xee;" horiz-adv-x="751" 
d="M499 1244v-970q0 -113 18 -152q14 -35 48 -56q33 -18 120 -18v-48h-588v48q91 0 118 16q31 19 48.5 58t17.5 152v466q0 194 -12 254q-6 39 -28 58q-13 9 -24.5 13.5t-29.5 4.5q-19 0 -38 -4.5t-52 -15.5l-18 48l364 146h56zM248 1828h244l250 -436h-40l-360 280
l-304 -280h-38z" />
    <glyph glyph-name="idieresis" unicode="&#xef;" horiz-adv-x="751" 
d="M499 1244v-970q0 -113 18 -152q14 -35 48 -56q33 -18 120 -18v-48h-588v48q91 0 118 16q31 19 48.5 58t17.5 152v466q0 194 -12 254q-6 39 -28 58q-13 9 -24.5 13.5t-29.5 4.5q-19 0 -38 -4.5t-52 -15.5l-18 48l364 146h56zM609 1766q59 0 100 -44q42 -39 42 -100
q0 -32 -9.5 -56.5t-32.5 -45.5q-42 -42 -100 -42q-57 0 -100.5 42t-43.5 102q0 58 42 100q21 21 46.5 32.5t55.5 11.5zM143 1766q58 0 101 -41.5t43 -102.5q0 -60 -43.5 -102t-98.5 -42q-60 0 -102 42t-42 102t40 100q21 21 46.5 32.5t55.5 11.5z" />
    <glyph glyph-name="eth" unicode="&#xf0;" 
d="M620 1544l-326 -178l-40 72l308 174q-96 93 -132 124l-51 39q-27 20 -67 45l36 58q80 -41 160 -91q89 -56 166 -115l330 184l44 -72l-302 -172q249 -219 377.5 -479t128.5 -507q0 -186 -75.5 -339t-213 -238t-305.5 -85q-234 0 -401 176t-167 442q0 276 182 482
q152 170 372 170q37 0 62.5 -3.5t53.5 -12.5q41 -13 108 -62q-104 217 -248 388zM632 1154q-125 0 -211.5 -108t-86.5 -362q0 -173 53 -327.5t144 -227.5t191 -73q118 0 202 103.5t84 338.5q0 298 -103 477t-273 179z" />
    <glyph glyph-name="ntilde" unicode="&#xf1;" 
d="M1340 0h-598v48h25q66 0 107 23.5t52 58t11 143.5v495q0 314 -187 314q-157 0 -313 -171v-638q0 -134 31.5 -179.5t165.5 -45.5v-48h-598v48h26q93 0 125 48.5t32 176.5v449q0 215 -18 281t-77 66q-37 0 -88 -20l-20 48l364 148h57v-256q212 256 405 256q313 0 313 -456
v-516q0 -128 31 -176.5t154 -48.5v-48zM303 1448h-42q0 89 19 155t55 107q71 80 174 80q53 0 104 -19t160.5 -92t163.5 -73q41 0 73 35t53 149h40q0 -123 -33 -194.5t-95 -113.5q-31 -20 -60.5 -30t-61.5 -10q-101 0 -258 106l-70 45q-28 17 -44 25q-27 12 -56 12
q-53 0 -86 -48q-7 -13 -15.5 -45t-20.5 -89z" />
    <glyph glyph-name="ograve" unicode="&#xf2;" 
d="M1258 627q0 -260 -162.5 -462t-434.5 -202q-271 0 -420.5 199.5t-149.5 430.5q0 258 164.5 455t420.5 197q277 0 429.5 -194.5t152.5 -423.5zM1012 525q0 194 -49 335t-131.5 220t-196.5 79q-141 0 -219.5 -118t-78.5 -337q0 -258 101.5 -452.5t279.5 -194.5
q294 0 294 468zM773 1379h-46l-388 456h294z" />
    <glyph glyph-name="oacute" unicode="&#xf3;" 
d="M1258 627q0 -260 -162.5 -462t-434.5 -202q-271 0 -420.5 199.5t-149.5 430.5q0 258 164.5 455t420.5 197q277 0 429.5 -194.5t152.5 -423.5zM1012 525q0 194 -49 335t-131.5 220t-196.5 79q-141 0 -219.5 -118t-78.5 -337q0 -258 101.5 -452.5t279.5 -194.5
q294 0 294 468zM1004 1834l-390 -454h-44l138 454h296z" />
    <glyph glyph-name="ocircumflex" unicode="&#xf4;" 
d="M1258 627q0 -260 -162.5 -462t-434.5 -202q-271 0 -420.5 199.5t-149.5 430.5q0 258 164.5 455t420.5 197q277 0 429.5 -194.5t152.5 -423.5zM1012 525q0 194 -49 335t-131.5 220t-196.5 79q-141 0 -219.5 -118t-78.5 -337q0 -258 101.5 -452.5t279.5 -194.5
q294 0 294 468zM550 1828h244l250 -436h-40l-360 280l-304 -280h-38z" />
    <glyph glyph-name="otilde" unicode="&#xf5;" 
d="M1258 627q0 -260 -162.5 -462t-434.5 -202q-271 0 -420.5 199.5t-149.5 430.5q0 258 164.5 455t420.5 197q277 0 429.5 -194.5t152.5 -423.5zM1012 525q0 194 -49 335t-131.5 220t-196.5 79q-141 0 -219.5 -118t-78.5 -337q0 -258 101.5 -452.5t279.5 -194.5
q294 0 294 468zM282 1448h-42q0 89 19 155t55 107q71 80 174 80q53 0 104 -19t160.5 -92t163.5 -73q41 0 73 35t53 149h40q0 -123 -33 -194.5t-95 -113.5q-31 -20 -60.5 -30t-61.5 -10q-101 0 -258 106l-70 45q-28 17 -44 25q-27 12 -56 12q-53 0 -86 -48q-7 -13 -15.5 -45
t-20.5 -89z" />
    <glyph glyph-name="odieresis" unicode="&#xf6;" 
d="M1258 627q0 -260 -162.5 -462t-434.5 -202q-271 0 -420.5 199.5t-149.5 430.5q0 258 164.5 455t420.5 197q277 0 429.5 -194.5t152.5 -423.5zM1012 525q0 194 -49 335t-131.5 220t-196.5 79q-141 0 -219.5 -118t-78.5 -337q0 -258 101.5 -452.5t279.5 -194.5
q294 0 294 468zM884 1765q59 0 100 -44q42 -39 42 -100q0 -32 -9.5 -56.5t-32.5 -45.5q-42 -42 -100 -42q-57 0 -100.5 42t-43.5 102q0 58 42 100q21 21 46.5 32.5t55.5 11.5zM418 1765q58 0 101 -41.5t43 -102.5q0 -60 -43.5 -102t-98.5 -42q-60 0 -102 42t-42 102t40 100
q21 21 46.5 32.5t55.5 11.5z" />
    <glyph glyph-name="divide" unicode="&#xf7;" horiz-adv-x="1484" 
d="M742 1420q47 0 80 -36q34 -31 34 -80q0 -24 -8 -44t-26 -38q-32 -32 -82 -32q-47 0 -82 32q-32 35 -32 82q0 48 32 80q36 36 84 36zM1454 844h-1424v110h1424v-110zM742 600q24 0 44 -8t38 -26q34 -34 34 -82q0 -24 -8 -44t-26 -38q-34 -34 -82 -34q-24 0 -44 8t-38 26
q-34 37 -34 82q0 47 32 82q37 34 84 34z" />
    <glyph glyph-name="oslash" unicode="&#xf8;" 
d="M1064 1098l176 194l60 -56l-178 -202q140 -180 140 -410q0 -77 -18.5 -156.5t-57.5 -167.5q-74 -166 -210 -251t-306 -85q-57 0 -105 8t-89 26q-83 29 -184 116l-178 -202l-62 56l186 210q-65 80 -102.5 200t-37.5 222q0 156 78 318q42 82 93.5 140.5t122.5 101.5
q135 84 296 84q111 0 196.5 -33.5t179.5 -112.5zM930 950q-70 118 -134 162q-31 22 -69.5 34t-82.5 12q-129 0 -214.5 -105t-85.5 -351q0 -164 50 -346zM966 864l-532 -594q68 -122 132 -168t156 -46q130 0 213 105.5t83 368.5q0 157 -52 334z" />
    <glyph glyph-name="ugrave" unicode="&#xf9;" 
d="M1348 112l-362 -149h-59v256q-236 -256 -411 -256q-309 0 -309 471v540q0 113 -43.5 149.5t-160.5 36.5v49h423v-809q0 -275 201 -275q130 0 300 172v685q0 102 -38.5 139t-155.5 39v49h411v-732q0 -200 18.5 -270.5t74.5 -70.5q41 0 92 22zM779 1379h-46l-388 456h294z
" />
    <glyph glyph-name="uacute" unicode="&#xfa;" 
d="M1348 112l-362 -149h-59v256q-236 -256 -411 -256q-309 0 -309 471v540q0 113 -43.5 149.5t-160.5 36.5v49h423v-809q0 -275 201 -275q130 0 300 172v685q0 102 -38.5 139t-155.5 39v49h411v-732q0 -200 18.5 -270.5t74.5 -70.5q41 0 92 22zM980 1834l-390 -454h-44
l138 454h296z" />
    <glyph glyph-name="ucircumflex" unicode="&#xfb;" 
d="M1348 112l-362 -149h-59v256q-236 -256 -411 -256q-309 0 -309 471v540q0 113 -43.5 149.5t-160.5 36.5v49h423v-809q0 -275 201 -275q130 0 300 172v685q0 102 -38.5 139t-155.5 39v49h411v-732q0 -200 18.5 -270.5t74.5 -70.5q41 0 92 22zM522 1828h244l250 -436h-40
l-360 280l-304 -280h-38z" />
    <glyph glyph-name="udieresis" unicode="&#xfc;" 
d="M1348 112l-362 -149h-59v256q-236 -256 -411 -256q-309 0 -309 471v540q0 113 -43.5 149.5t-160.5 36.5v49h423v-809q0 -275 201 -275q130 0 300 172v685q0 102 -38.5 139t-155.5 39v49h411v-732q0 -200 18.5 -270.5t74.5 -70.5q41 0 92 22zM883 1765q59 0 100 -44
q42 -39 42 -100q0 -32 -9.5 -56.5t-32.5 -45.5q-42 -42 -100 -42q-57 0 -100.5 42t-43.5 102q0 58 42 100q21 21 46.5 32.5t55.5 11.5zM417 1765q58 0 101 -41.5t43 -102.5q0 -60 -43.5 -102t-98.5 -42q-60 0 -102 42t-42 102t40 100q21 21 46.5 32.5t55.5 11.5z" />
    <glyph glyph-name="yacute" unicode="&#xfd;" 
d="M1336 1160q-62 -7 -98.5 -42t-79.5 -140l-493 -1206q-145 -355 -409 -355q-65 0 -121.5 39.5t-56.5 107.5q0 123 136 123q43 0 119 -29q52 -20 66 -20q98 0 180 200l86 210l-434 912q-89 186 -215 200v49h563v-49h-27q-119 0 -119 -89q0 -52 44 -143l294 -610l271 668
q22 54 22 107q0 67 -121 67v49h393v-49zM1043 1834l-390 -454h-44l138 454h296z" />
    <glyph glyph-name="thorn" unicode="&#xfe;" 
d="M-2 1726l372 152h50v-920q94 157 188 221.5t198 64.5q92 0 167.5 -35t136.5 -107q150 -174 150 -454q0 -311 -180 -518q-148 -166 -372 -166q-98 0 -170 26q-26 11 -55.5 30.5t-62.5 49.5v-368q0 -125 14 -155.5t51 -51.5t139 -21v-50h-634v50l34 -2q35 0 65 7t56 19.5
t41 49.5q14 28 14 162v1780q0 63 -2 98.5t-8 51.5q-9 29 -31 46.5t-65 17.5q-34 0 -80 -20zM420 880v-452q0 -146 11 -190t31.5 -75.5t59.5 -62.5q70 -58 182 -58q131 0 214 104q106 133 106 378q0 277 -122 426q-80 104 -200 104q-56 0 -126 -32q-43 -23 -156 -142z" />
    <glyph glyph-name="ydieresis" unicode="&#xff;" 
d="M1336 1160q-62 -7 -98.5 -42t-79.5 -140l-493 -1206q-145 -355 -409 -355q-65 0 -121.5 39.5t-56.5 107.5q0 123 136 123q43 0 119 -29q52 -20 66 -20q98 0 180 200l86 210l-434 912q-89 186 -215 200v49h563v-49h-27q-119 0 -119 -89q0 -52 44 -143l294 -610l271 668
q22 54 22 107q0 67 -121 67v49h393v-49zM931 1766q59 0 100 -44q42 -39 42 -100q0 -32 -9.5 -56.5t-32.5 -45.5q-42 -42 -100 -42q-57 0 -100.5 42t-43.5 102q0 58 42 100q21 21 46.5 32.5t55.5 11.5zM465 1766q58 0 101 -41.5t43 -102.5q0 -60 -43.5 -102t-98.5 -42
q-60 0 -102 42t-42 102t40 100q21 21 46.5 32.5t55.5 11.5z" />
    <glyph glyph-name="OE" unicode="&#x152;" horiz-adv-x="2404" 
d="M1458 1692v-706h242q149 0 212.5 62t63.5 196h52v-622h-52q0 79 -18 132t-50 82q-55 52 -208 52h-242v-590q0 -105 12 -138q6 -17 16 -28t28 -22q10 -4 36 -7t66 -3h138q157 0 220 18q64 15 130 78q100 88 170 252h54l-144 -448h-640q-59 0 -115.5 -0.5t-110.5 -1.5
l-220 -12q-54 0 -118 -4t-74 -4q-220 0 -406 114q-180 109 -292 330q-108 216 -108 470q0 338 186 602q222 312 650 312q50 -4 125 -7t131 -3q92 0 189.5 -2.5t162.5 -3.5h624l16 -394h-42q-15 80 -28.5 126t-27.5 72q-32 50 -102 82q-45 16 -188 16h-338zM1204 1376
q0 171 -26 226q-20 51 -70 82q-32 18 -74 28t-92 10q-164 0 -288 -95.5t-190 -296.5q-30 -101 -46 -213t-16 -235q0 -103 13.5 -199t42.5 -199q57 -193 180 -302.5t298 -109.5q94 0 162 34q58 33 82 93.5t24 248.5v928z" />
    <glyph glyph-name="oe" unicode="&#x153;" horiz-adv-x="1952" 
d="M1140 756l-4 -50q0 -117 44.5 -255t131.5 -205q45 -33 92 -49.5t100 -16.5q103 0 184 67.5t132 220.5l42 -22q-45 -252 -164.5 -367t-283.5 -115q-66 0 -120 14.5t-100 47.5q-89 61 -136 150q-82 -107 -186 -160q-54 -26 -110.5 -39t-123.5 -13q-116 0 -213.5 41.5
t-178.5 126.5q-158 173 -158 452q0 302 164 481t394 179q144 0 246 -56.5t166 -151.5q79 112 165 161t209 49q192 0 316 -130q59 -65 86.5 -153.5t27.5 -206.5h-722zM598 1172q-45 0 -114 -36q-60 -31 -100 -118q-48 -108 -48 -306q0 -342 134 -536q81 -120 202 -120
q117 0 194.5 98.5t77.5 345.5q0 305 -88.5 488.5t-257.5 183.5zM1140 842h462q0 94 -32 178q-10 31 -30 55.5t-50 44.5q-57 38 -118 38q-87 0 -158 -80q-34 -40 -54 -100t-20 -136z" />
    <glyph glyph-name="Scaron" unicode="&#x160;" horiz-adv-x="1504" 
d="M235 -41h-49v614h49q91 -511 532 -511q153 0 254.5 82t101.5 211q0 145 -149 259q-352 205 -578.5 353.5t-226.5 392.5q0 201 151 336t373 135q144 0 302 -70q75 -33 105 -33q69 0 91 103h49v-619h-49q-39 274 -179.5 393.5t-315.5 119.5q-130 0 -223.5 -79.5
t-93.5 -194.5q0 -74 63.5 -157.5t382.5 -255.5q196 -105 297 -172.5t168.5 -175t67.5 -233.5q0 -214 -162.5 -356t-400.5 -142q-129 0 -319 63q-117 39 -161 39q-65 0 -80 -102zM852 1932h-242l-250 436h40l360 -280l302 280h40z" />
    <glyph glyph-name="scaron" unicode="&#x161;" horiz-adv-x="1052" 
d="M181 -18h-44v431h44q74 -372 375 -372q78 0 142 47t64 135q0 109 -113 195q-171 87 -423 251q-94 90 -94 226q0 155 104 252.5t263 97.5q68 0 173 -31q64 -19 90 -19q35 0 60 50h44v-412h-44q-86 334 -328 334q-75 0 -140.5 -41t-65.5 -116q0 -142 208 -242l193 -93
q268 -129 268 -345q0 -155 -118 -261t-286 -106q-113 0 -253 40q-46 13 -72 13q-30 0 -47 -34zM629 1392h-242l-250 436h40l360 -280l302 280h40z" />
    <glyph glyph-name="Ydieresis" unicode="&#x178;" horiz-adv-x="1952" 
d="M1913 1741h-35q-63 0 -140 -44.5t-213 -257.5l-432 -680v-449q0 -176 50 -218.5t145 -42.5h58v-49h-760v49h63q117 0 154 56t37 205v424l-492 750q-75 114 -107 152t-98 71.5t-118 33.5v49h766v-49h-40q-166 0 -166 -116q0 -49 80 -172l374 -576l351 551q79 124 79 185
q0 128 -181 128v49h625v-49zM1204 2306q59 0 100 -44q42 -39 42 -100q0 -32 -9.5 -56.5t-32.5 -45.5q-42 -42 -100 -42q-57 0 -100.5 42t-43.5 102q0 58 42 100q21 21 46.5 32.5t55.5 11.5zM738 2306q58 0 101 -41.5t43 -102.5q0 -60 -43.5 -102t-98.5 -42q-60 0 -102 42
t-42 102t40 100q21 21 46.5 32.5t55.5 11.5z" />
    <glyph glyph-name="florin" unicode="&#x192;" 
d="M906 1156h236l-22 -88h-230q-38 -196 -90 -410q-55 -228 -138 -524q-62 -227 -128.5 -374.5t-141.5 -219.5q-111 -108 -228 -108q-75 0 -118 40q-21 20 -32.5 44.5t-11.5 53.5q0 52 32 84q31 34 70 34q33 0 60 -24q23 -23 26 -50q0 -29 -18 -50q-11 -16 -14 -26
q0 -8 10 -18q5 -7 24 -10q26 0 48 14q39 21 77 81.5t81 236.5l112 548l164 678h-234l20 88q58 0 100 5.5t64 12.5q33 12 56 44q32 41 80 176q93 278 184 360q45 39 92 58.5t102 19.5q80 0 130 -44t50 -104q0 -45 -26 -74q-11 -14 -27.5 -21t-34.5 -7q-38 0 -61 23t-23 51
q0 12 4 23t10 21q14 22 14 36q0 13 -10 26q-1 1 -11.5 3.5t-24.5 4.5q-41 0 -76 -32q-21 -20 -37 -49t-23 -61q-34 -149 -86 -472z" />
    <glyph glyph-name="circumflex" unicode="&#x2c6;" horiz-adv-x="900" 
d="M328 1828h244l250 -436h-40l-360 280l-304 -280h-38z" />
    <glyph glyph-name="tilde" unicode="&#x2dc;" horiz-adv-x="900" 
d="M72 1448h-42q0 89 19 155t55 107q71 80 174 80q53 0 104 -19t160.5 -92t163.5 -73q41 0 73 35t53 149h40q0 -123 -33 -194.5t-95 -113.5q-31 -20 -60.5 -30t-61.5 -10q-101 0 -258 106l-70 45q-28 17 -44 25q-27 12 -56 12q-53 0 -86 -48q-7 -13 -15.5 -45t-20.5 -89z
" />
    <glyph glyph-name="quotesinglbase" unicode="&#x201a;" horiz-adv-x="676" 
d="M145 -450v58q285 94 285 339q0 54 -30 54q-13 0 -63 -26q-23 -12 -51 -12q-141 0 -141 144q0 67 50.5 112t119.5 45q104 0 164 -86t60 -191q0 -308 -394 -437z" />
    <glyph glyph-name="uni201E" unicode="&#x201e;" horiz-adv-x="1200" 
d="M152 -418v56q132 75 174 136.5t42 141.5q0 38 -12 56q-15 18 -32 18q-7 0 -18 -2.5t-24 -7.5q-33 -10 -58 -10q-59 0 -97.5 40t-38.5 96q0 63 50.5 110.5t123.5 47.5q85 0 157.5 -75.5t72.5 -190.5q0 -138 -88 -252.5t-252 -163.5zM782 -418v56q114 60 164 128
q52 64 52 142q0 46 -14 66q-13 16 -28 16q-9 0 -21 -2.5t-25 -7.5q-33 -10 -54 -10q-54 0 -94 40t-40 98q0 62 48 110q24 22 54.5 34t67.5 12q88 0 160 -76.5t72 -189.5q0 -132 -88 -245.5t-254 -170.5z" />
    <glyph glyph-name="uni2020" unicode="&#x2020;" 
d="M692 -556h-50q0 575 -42 926q-27 262 -90 500q34 29 57 59t39 63q16 37 26 83.5t10 106.5q-41 0 -82.5 -11.5t-91.5 -34.5q-140 -58 -202 -58q-57 0 -94.5 36t-37.5 90q0 57 38 93.5t98 36.5q21 0 31 -1t29 -7q11 -2 41.5 -14.5t96.5 -43.5q42 -17 86.5 -27.5t87.5 -10.5
q0 56 -8 80q-7 31 -18 62q-4 12 -22 52q-72 168 -72 256q0 74 44.5 123t103.5 49q56 0 100 -50t44 -122q0 -22 -2 -41t-8 -37q-6 -26 -21 -67.5t-40 -100.5t-38 -109t-13 -95q44 0 83 9.5t91 28.5q145 56 155.5 58.5t17.5 3.5q21 4 39 4q62 0 100 -38q40 -34 40 -92
q0 -53 -38 -89.5t-98 -36.5q-37 0 -90 15t-128 47l-90 32q-11 3 -34.5 5t-47.5 5q0 -60 9.5 -105t26 -83t39 -67t57.5 -57q-33 -126 -54.5 -242.5t-32 -223t-19.5 -224.5q-12 -165 -19 -343t-7 -393z" />
    <glyph glyph-name="uni2021" unicode="&#x2021;" 
d="M700 1288q9 -90 34 -128q14 -24 34 -46t56 -50q-33 -49 -57 -96t-38.5 -94.5t-21.5 -104.5t-7 -131q0 -71 6.5 -122.5t21.5 -99.5q25 -84 96 -192q-68 -58 -88 -98q-23 -38 -36 -126l74 14q26 7 94 36q113 46 178 46q53 0 88 -32q34 -34 34 -84q0 -26 -8.5 -48t-25.5 -38
q-33 -36 -88 -36q-26 0 -67 12t-99 38q-13 5 -44.5 16t-53.5 18q-11 3 -34.5 5.5t-47.5 4.5q4 -33 9 -65t7.5 -42.5t9 -27.5t18.5 -45q66 -144 66 -216q0 -62 -37.5 -101t-94.5 -39q-55 0 -93.5 40t-38.5 104q0 23 1.5 33t6.5 35.5t52 147.5q16 42 25.5 84t14.5 92
q-59 0 -92 -12q-31 -6 -98 -36q-101 -46 -150 -46q-52 0 -86 34q-34 31 -34 82q0 57 35.5 89.5t90.5 32.5q30 0 64.5 -9.5t91 -34t94.5 -34.5q12 -3 37 -5.5t47 -2.5q-7 43 -14.5 71t-21.5 49q-13 23 -33 44t-57 50q57 76 88 158q40 123 40 272q0 155 -42 272
q-12 35 -34 70.5t-52 67.5q34 26 55.5 47.5t32.5 41.5t20.5 54.5t17.5 80.5q-48 0 -78 -10q-18 -3 -111.5 -40.5t-156.5 -37.5q-26 0 -47 8.5t-37 25.5q-32 32 -32 82q0 48 32 80q31 34 82 34q30 0 74 -11.5t100 -34.5q70 -28 97.5 -34t76.5 -12q0 32 -2 49t-8 35
q-11 49 -60 170l-30 80l-3 28t-1 30q0 65 38.5 106.5t93.5 41.5q58 0 92 -40q36 -36 36 -112q0 -30 -1.5 -41.5t-6.5 -26.5q-4 -20 -18.5 -54.5l-27.5 -65.5q-22 -47 -35 -98t-13 -102q24 2 48 4.5t35.5 5.5t36 12t64.5 26q97 44 166 44q52 0 85 -33t33 -83q0 -26 -8.5 -47
t-25.5 -37q-35 -32 -90 -32q-61 0 -166 42q-22 10 -44 19q-31 13 -46.5 17.5t-26.5 5.5q-36 4 -61 6z" />
    <glyph glyph-name="uni2030" unicode="&#x2030;" horiz-adv-x="2704" 
d="M1610 1832l-1282 -1904h-118l1284 1904h116zM466 1832q99 0 192 -60q46 -32 80 -73.5t60 -100.5q50 -109 50 -250q0 -222 -111.5 -350t-264.5 -128q-100 0 -192 57.5t-142 170.5q-26 51 -39 116t-13 136t12.5 132t39.5 120q50 112 139.5 171t188.5 59zM460 1762
q-35 0 -66 -22q-42 -39 -66 -114q-30 -102 -30 -284q0 -246 62 -340q45 -66 108 -66q60 0 104 68q66 105 66 356q0 234 -64 332q-46 70 -114 70zM1358 888q91 0 186 -58q87 -60 140 -172q27 -60 40.5 -120t13.5 -126q0 -141 -52 -254t-145 -171.5t-187 -58.5
q-75 0 -140.5 31.5t-123.5 96.5q-116 128 -116 350q0 140 54 254q26 59 60.5 101t83.5 71q96 56 186 56zM1354 818q-42 0 -72 -24q-45 -39 -70.5 -121t-25.5 -277q0 -236 60 -332q43 -64 106 -64t108 66q64 101 64 334q0 252 -66 352q-39 66 -104 66zM2232 888
q90 0 185.5 -56.5t146.5 -167.5q26 -55 39 -114t13 -128q0 -157 -48 -265.5t-141.5 -168.5t-192.5 -60q-91 0 -183 58.5t-145 167.5q-25 56 -37.5 116t-12.5 128q0 153 50.5 266.5t146 168.5t179.5 55zM2232 818q-65 0 -106 -62q-58 -95 -58 -354q0 -240 60 -336
q45 -66 110 -66q38 0 70 26q43 37 70 124q12 45 19 116t7 168q0 226 -62 318q-45 66 -110 66z" />
    <glyph glyph-name="uni2039" unicode="&#x2039;" horiz-adv-x="900" 
d="M744 -10h-76l-510 622l510 622h76l-322 -622z" />
    <glyph glyph-name="uni203A" unicode="&#x203a;" horiz-adv-x="900" 
d="M152 1234h76l520 -624l-520 -620h-76l320 620z" />
    <glyph glyph-name="uni2122" unicode="&#x2122;" horiz-adv-x="2650" 
d="M68 1790h960l30 -266h-46q-12 97 -70 140q-52 46 -186 46h-98v-764q0 -111 26 -140q27 -34 114 -34v-48h-494v48q84 9 108 36t24 138v764h-100q-130 0 -178 -42q-26 -19 -44 -55t-30 -89h-44zM1526 1790l360 -756l350 756h368v-48q-77 0 -98 -16q-14 -7 -22 -16t-14 -26
q-12 -27 -12 -120v-618q0 -111 26 -140q12 -15 43 -24.5t77 -9.5v-48h-524v48q75 0 104 16q15 8 24.5 17.5t15.5 24.5q12 27 12 114v650l-404 -870h-44l-406 858v-636q0 -48 2 -76t7.5 -41t14.5 -23.5t22 -19.5q13 -6 32 -10t44 -4h48v-48h-404v48q75 0 99.5 13t37.5 40.5
t13 120.5v614q0 98 -11 126.5t-39 39.5q-26 16 -100 16v48h378z" />
    <glyph glyph-name="ring" unicode="&#x2da;" horiz-adv-x="900" 
d="M450 1880q106 0 180 -74t74 -178q0 -106 -74 -180q-39 -37 -82.5 -55.5t-97.5 -18.5q-104 0 -178 74q-37 39 -55.5 82.5t-18.5 97.5q0 103 72 178q39 37 82.5 55.5t97.5 18.5zM450 1788q-68 0 -114 -46t-46 -114q0 -65 45.5 -113.5t114.5 -48.5q66 0 114 48t48 114
t-47 113t-115 47z" />
    <glyph glyph-name="ring" unicode="&#x25e6;" horiz-adv-x="900" 
d="M450 1880q106 0 180 -74t74 -178q0 -106 -74 -180q-39 -37 -82.5 -55.5t-97.5 -18.5q-104 0 -178 74q-37 39 -55.5 82.5t-18.5 97.5q0 103 72 178q39 37 82.5 55.5t97.5 18.5zM450 1788q-68 0 -114 -46t-46 -114q0 -65 45.5 -113.5t114.5 -48.5q66 0 114 48t48 114
t-47 113t-115 47z" />
    <glyph glyph-name="dotlessi" unicode="&#x131;" horiz-adv-x="751" 
d="M499 1244v-970q0 -113 18 -152q14 -35 48 -56q33 -18 120 -18v-48h-588v48q91 0 118 16q31 19 48.5 58t17.5 152v466q0 194 -12 254q-6 39 -28 58q-13 9 -24.5 13.5t-29.5 4.5q-19 0 -38 -4.5t-52 -15.5l-18 48l364 146h56z" />
    <glyph glyph-name="caron" unicode="&#x2c7;" horiz-adv-x="900" 
d="M572 1392h-242l-250 436h40l360 -280l302 280h40z" />
    <glyph glyph-name="Euro" unicode="&#x20ac;" 
d="M1118 973h-758q-4 -56 -4 -110h729l-30 -103h-696q11 -279 111 -464q117 -217 317 -217q176 0 295 91q72 55 181 206l41 -26q-114 -180 -206 -256q-151 -126 -364 -126q-304 0 -470 252q-136 206 -161 540h-133l30 103h98v21q0 40 2 89h-130l30 103h111q45 312 214 516
q194 235 496 235q226 0 449 -116v-395h-52q-34 424 -397 424q-209 0 -330 -221q-94 -170 -123 -443h780z" />
    <glyph glyph-name="delete" horiz-adv-x="2048" 
 />
    <glyph glyph-name="Zcaron" unicode="&#x17d;" horiz-adv-x="1651" 
d="M1576 474l-84 -474h-1458v49l1149 1634h-573q-136 0 -232 -45t-134 -296h-50l37 448h1324l-1176 -1682h734q185 0 271 85t149 289zM960 1992h-242l-250 436h40l360 -280l302 280h40z" />
    <glyph glyph-name="zcaron" unicode="&#x17e;" horiz-adv-x="1200" 
d="M1156 1160l-810 -1072h441q114 0 201.5 34t101.5 249h45l-14 -371h-1067v48l803 1069h-396q-164 0 -215 -55t-59 -188h-52l8 335h1013v-49zM748 1392h-242l-250 436h40l360 -280l302 280h40z" />
    <glyph glyph-name="uni200B" unicode="&#x200b;" horiz-adv-x="0" 
 />
    <glyph glyph-name="uni25CC" unicode="&#x25cc;" horiz-adv-x="2048" 
d="M1214 172q0 -147 -146 -147q-147 0 -147 147q0 61 43 103.5t104 42.5q37 0 69 -17t54.5 -51t22.5 -78zM1214 1838q0 -147 -146 -147q-147 0 -147 147q0 61 43 103.5t104 42.5q37 0 69 -17t54.5 -51t22.5 -78zM655 1012q0 -147 -146 -147q-147 0 -147 147q0 61 43 103.5
t104 42.5q37 0 69 -17t54.5 -51t22.5 -78zM1799 973q0 -147 -146 -147q-147 0 -147 147q0 61 43 103.5t104 42.5q37 0 69 -17t54.5 -51t22.5 -78zM1672 1546q0 -147 -146 -147q-147 0 -147 147q0 61 43 103.5t104 42.5q37 0 69 -17t54.5 -51t22.5 -78zM731 1520
q0 -147 -146 -147q-147 0 -147 147q0 61 43 103.5t104 42.5q37 0 69 -17t54.5 -51t22.5 -78zM782 452q0 -147 -146 -147q-147 0 -147 147q0 61 43 103.5t104 42.5q37 0 69 -17t54.5 -51t22.5 -78zM1697 465q0 -147 -146 -147q-147 0 -147 147q0 61 43 103.5t104 42.5
q37 0 69 -17t54.5 -51t22.5 -78z" />
    <glyph glyph-name="zero.alt1" 
d="M1196 821q0 -448 -170.5 -649t-357.5 -201q-220 0 -366.5 244.5t-146.5 580.5q0 419 166.5 633.5t358.5 214.5q145 0 267.5 -116t185.5 -293.5t63 -413.5zM964 873q0 310 -72.5 501.5t-212.5 191.5q-292 0 -292 -800q0 -339 76.5 -529.5t208.5 -190.5q292 0 292 827z" />
    <glyph glyph-name="one.alt1" 
d="M993 0h-607v44q114 1 145 17t46.5 40.5t15.5 181.5v871q0 184 -15.5 241.5t-78.5 57.5q-44 0 -123 -37l-18 37l392 191h39v-1361q0 -120 7.5 -155t42.5 -58.5t154 -25.5v-44z" />
    <glyph glyph-name="two.alt1" 
d="M1208 310l-113 -310h-951v44q444 401 603 642.5t159 425.5q0 131 -83 240.5t-236 109.5q-260 0 -353 -273h-43q61 455 459 455q190 0 324.5 -122.5t134.5 -300.5q0 -137 -85.5 -304t-328 -427.5t-298.5 -310.5h421q124 0 207.5 19.5t138.5 111.5h44z" />
    <glyph glyph-name="three.alt1" 
d="M489 799v36q180 24 274 130t94 245q0 103 -67 187.5t-200 84.5q-185 0 -308 -197l-40 19q144 340 437 340q175 0 275 -102.5t100 -223.5q0 -176 -221 -364q300 -118 300 -420q0 -237 -168.5 -400t-466.5 -163q-280 0 -280 128q0 86 94 86q52 0 162 -55q111 -55 183 -55
q139 0 220 101t81 215q0 100 -48.5 197.5t-153 154t-229.5 56.5h-38z" />
    <glyph glyph-name="four.alt1" 
d="M1223 426h-216v-426h-196v426h-682v152l748 1066h130v-1050h216v-168zM811 594v799l-565 -799h565z" />
    <glyph glyph-name="five.alt1" 
d="M1146 1611l-93 -202h-485l-106 -217q296 -43 476.5 -211t180.5 -402q0 -251 -191 -429.5t-446 -178.5q-277 0 -277 159q0 84 96 84q50 0 134 -58q89 -62 180 -62q144 0 247 106.5t103 254.5q0 233 -189 377.5t-517 152.5l309 626h578z" />
    <glyph glyph-name="six.alt1" 
d="M1154 1644v-44q-550 -54 -719 -701q171 118 343 118q194 0 300.5 -148.5t106.5 -326.5q0 -195 -132 -383t-380 -188q-140 0 -254 87t-183 238t-69 336q0 415 290.5 713.5t626.5 298.5h70zM415 813q-22 -161 -22 -260q0 -146 39.5 -259t111.5 -184.5t164 -71.5
q124 0 195 111.5t71 263.5q0 211 -81.5 355.5t-228.5 144.5q-87 0 -249 -100z" />
    <glyph glyph-name="seven.alt1" 
d="M1185 1566l-538 -1599h-133l482 1450h-444q-122 0 -204.5 -38.5t-146.5 -161.5l-35 12l155 382h864v-45z" />
    <glyph glyph-name="eight.alt1" 
d="M531 812q-189 154 -245.5 252t-56.5 197q0 183 136 283t307 100q175 0 303.5 -96.5t128.5 -250.5q0 -197 -331 -405q232 -179 299.5 -286.5t67.5 -223.5q0 -198 -144.5 -304.5t-324.5 -106.5q-231 0 -345 129.5t-114 266.5q0 213 319 445zM717 939q143 127 181 205.5
t38 164.5q0 266 -262 266q-114 0 -193.5 -66.5t-79.5 -167.5q0 -140 122 -241zM587 766q-194 -163 -194 -393q0 -149 82 -243t215 -94q109 0 196 63.5t87 183.5q0 80 -55 171.5t-331 311.5z" />
    <glyph glyph-name="nine.alt1" 
d="M201 -33v44q265 4 457.5 210t259.5 485q-186 -119 -338 -119q-183 0 -297.5 138.5t-114.5 340.5q0 230 142 404t360 174q130 0 242 -73.5t192 -230t80 -361.5q0 -426 -291.5 -719t-624.5 -293h-67zM958 1042q0 150 -36 262.5t-109.5 187.5t-168.5 75
q-127 0 -195.5 -109.5t-68.5 -268.5q0 -222 82.5 -358t213.5 -136q141 0 261 100q21 154 21 247z" />
    <glyph glyph-name="uni0E47.sm" horiz-adv-x="0" 
d="M-916 2040q37 91 100 91q56 0 173 -55q166 -77 191 -77q60 0 90 67q-40 0 -68.5 9.5t-47 25t-27.5 36t-9 42.5q0 18 6 36.5t19.5 34.5t35.5 26t53 10q40 0 71.5 -16.5t53.5 -43.5t33 -60.5t11 -67.5q0 -37 -12 -74.5t-39.5 -68t-71.5 -49.5t-108 -19q-61 0 -186 65
q-107 56 -145 56q-71 0 -87 -105q-183 103 -183 295q0 257 269 257q12 0 41 -1.5t62 -3.5t63.5 -3.5t46.5 -1.5q45 0 80 7t59.5 28t37.5 60.5t13 104.5v100h161q6 -8 6 -58q0 -65 -11 -115t-32 -87.5t-52.5 -65t-73.5 -48.5q-85 -41 -185 -41q-36 1 -59.5 1.5t-51 1.5
t-53 1.5t-46.5 1t-31 0.5q-161 0 -161 -179q0 -71 64 -117z" />
    <glyph glyph-name="uni0E48.small" horiz-adv-x="0" 
d="M-295 3416l-61 -500h-164l-53 500h278z" />
    <glyph glyph-name="uni0E49.small" horiz-adv-x="0" 
d="M207 3780q0 -486 -247 -658q-248 -173 -581 -173v115q42 2 91 19t91 47.5t69.5 73.5t27.5 97q-258 0 -258 191q0 44 16.5 79.5t43.5 61t62.5 39.5t73.5 14q228 0 228 -268q0 -213 -158 -338q401 162 401 700h140zM-291 3492q0 120 -114 120q-111 0 -111 -125
q0 -108 119 -108q106 0 106 113z" />
    <glyph glyph-name="uni0E4A.small" horiz-adv-x="0" 
d="M-356 2994l-33 80q98 86 98 231q0 37 -9 74t-26 67t-40.5 49t-51.5 19q-16 0 -143 -147l-139 147q-20 0 -44 -19t-45 -48.5t-35.5 -64.5t-14.5 -67q0 -235 180 -235q-45 30 -45 94q0 86 94 86q100 0 100 -106q0 -156 -159 -156q-93 0 -182 76q-91 76 -91 240
q0 148 78 234q76 85 137 85q27 0 162 -160q132 156 166 156q45 0 83 -23.5t65.5 -61t43 -84.5t15.5 -93q0 -84 -37 -168q156 115 156 287q0 167 -41 241l118 54q52 -117 52 -230q0 -400 -412 -557z" />
    <glyph glyph-name="uni0E4B.small" horiz-adv-x="0" 
d="M-90 3207h-250v-250h-188v250h-250v193h250v245h188v-245h250v-193z" />
    <glyph glyph-name="uni0E4C.small" horiz-adv-x="0" 
d="M377 3416q-67 -292 -365 -369q49 -50 49 -139q0 -51 -16 -91.5t-45 -68t-69 -42.5t-87 -15q-45 0 -86 15.5t-72 43.5t-49 66.5t-18 83.5q0 196 250 256q178 42 258 106q82 64 82 269zM-33 2904q0 131 -121 131q-129 0 -129 -131q0 -115 131 -115q20 0 41 8t38.5 23
t28.5 36t11 48z" />
    <glyph glyph-name="uni0E4D.small" horiz-adv-x="0" 
d="M-255 2103q0 -43 -16.5 -88.5t-47 -83.5t-75 -62.5t-100.5 -24.5q-45 0 -90.5 17t-81.5 49.5t-59 79.5t-23 107q0 45 16 89t47.5 79.5t78 57.5t106.5 22q63 0 109 -20.5t76.5 -54.5t45 -77.5t14.5 -89.5zM-375 2095q0 25 -8.5 49.5t-25 44t-40.5 31.5t-55 12
q-28 0 -51.5 -11.5t-40.5 -30.5t-26.5 -43.5t-9.5 -51.5q0 -29 10 -54.5t28 -44.5t42.5 -30t54.5 -11q122 0 122 140z" />
    <glyph glyph-name="uni0E4E.small" horiz-adv-x="0" 
d="M-35 2644l-91 -100q-51 13 -74 13q-138 0 -138 -110q0 -93 135 -93l-41 -103q-206 0 -206 -129q0 -83 86 -83q43 0 81 29l54 -96q-55 -52 -138 -52q-51 0 -90.5 15.5t-66.5 43t-41 64.5t-14 79q0 44 17 82t47.5 65.5t73.5 43.5t94 16q-120 12 -120 131q0 48 23.5 87.5
t61 67t84 43t92.5 15.5q110 0 171 -29z" />
  </font>
</defs>
</svg>
